<?xml version="1.0" standalone="no"?>
<!DOCTYPE svg PUBLIC "-//W3C//DTD SVG 1.1//EN" "http://www.w3.org/Graphics/SVG/1.1/DTD/svg11.dtd" >
<svg xmlns="http://www.w3.org/2000/svg">
<metadata>Generated by IcoMoon</metadata>
<defs>
<font id="iconsmind" horiz-adv-x="1024">
<font-face units-per-em="1024" ascent="960" descent="-64" />
<missing-glyph horiz-adv-x="1024" />
<glyph unicode="&#x20;" d="" horiz-adv-x="512" />
<glyph unicode="&#xe600;" d="M945.493 422.4h-866.987c-11.947 0-21.333 9.387-21.333 21.333s9.387 21.333 21.333 21.333h866.987c11.947 0 21.333-9.387 21.333-21.333s-10.24-21.333-21.333-21.333zM512-11.093c-11.947 0-21.333 9.387-21.333 21.333v866.987c0 11.947 9.387 21.333 21.333 21.333s21.333-9.387 21.333-21.333v-866.987c0-11.947-10.24-21.333-21.333-21.333z" />
<glyph unicode="&#xe601;" d="M516.267-27.307c-261.973 0-475.307 213.333-475.307 475.307s213.333 475.307 475.307 475.307c261.973 0 475.307-213.333 475.307-475.307s-213.333-475.307-475.307-475.307zM516.267 880.64c-238.933 0-432.64-193.707-432.64-432.64s193.707-432.64 432.64-432.64c238.933 0 432.64 193.707 432.64 432.64s-194.56 432.64-432.64 432.64zM516.267 426.667c-5.12 0-11.093 1.707-15.36 5.973-8.533 8.533-8.533 22.187 0 29.867l252.587 251.733c8.533 8.533 22.187 8.533 29.867 0 8.533-8.533 8.533-22.187 0-29.867l-252.587-251.733c-4.267-3.413-9.387-5.973-14.507-5.973zM516.267 426.667c-5.12 0-11.093 1.707-15.36 5.973l-151.040 151.893c-8.533 8.533-8.533 22.187 0 29.867 8.533 8.533 22.187 8.533 29.867 0l151.040-151.040c8.533-8.533 8.533-22.187 0-29.867-4.267-4.267-9.387-6.827-14.507-6.827z" />
<glyph unicode="&#xe602;" d="M945.493 426.667h-866.987c-11.947 0-21.333 9.387-21.333 21.333s9.387 21.333 21.333 21.333h866.987c11.947 0 21.333-9.387 21.333-21.333s-9.387-21.333-21.333-21.333z" />
<glyph unicode="&#xe603;" d="M821.146 569.105c-6.724 0-13.141 4.028-15.804 10.684-40.038 98.816-134.758 162.645-241.357 162.645-54.409 0-106.496-16.623-150.63-48.094-7.646-5.495-18.295-3.686-23.791 3.994-5.461 7.68-3.652 18.33 3.994 23.791 49.937 35.601 108.885 54.443 170.428 54.443 120.559 0 227.703-72.192 272.998-183.979 3.55-8.738-0.717-18.671-9.421-22.221-2.116-0.853-4.335-1.263-6.417-1.263zM577.126 814.933c-9.387 0-17.067 7.646-17.067 17.067v102.4c0 9.421 7.68 17.067 17.067 17.067 9.421 0 17.067-7.646 17.067-17.067v-102.4c0-9.421-7.612-17.067-17.067-17.067zM1003.793 456.533h-68.267c-9.387 0-17.067 7.646-17.067 17.067s7.68 17.067 17.067 17.067h68.267c9.421 0 17.067-7.646 17.067-17.067s-7.612-17.067-17.067-17.067zM291.874 715.844c-4.369 0-8.738 1.673-12.083 4.983l-59.802 59.767c-6.656 6.656-6.656 17.476 0 24.132s17.476 6.656 24.132 0l59.767-59.767c6.656-6.656 6.656-17.476 0-24.132-3.277-3.311-7.646-4.983-12.015-4.983zM820.975 730.897c-4.369 0-8.738 1.673-12.083 4.983-6.656 6.656-6.656 17.476 0 24.132l44.749 44.715c6.622 6.656 17.476 6.656 24.132 0 6.622-6.656 6.622-17.476 0-24.132l-44.749-44.715c-3.311-3.345-7.68-4.983-12.049-4.983zM717.824-55.467h-384.887c-175.684 0-329.796 163.055-329.796 349.082 0 185.958 154.112 349.047 329.796 349.047 111.104 0 212.309-54.477 273.783-146.534 35.601 17.476 72.909 26.317 111.104 26.317 137.25 0 257.638-129.434 257.638-276.89 0-139.298-112.538-301.022-257.638-301.022zM332.902 608.461c-157.457 0-295.629-147.149-295.629-314.948 0-167.731 138.172-314.914 295.629-314.914h384.922c123.802 0 223.505 145.954 223.505 266.82 0 129.331-104.448 242.722-223.505 242.722-37.444 0-74.001-9.899-108.681-29.457l-14.438-8.158-8.533 14.199c-54.204 90.044-148.821 143.735-253.269 143.735z" />
<glyph unicode="&#xe604;" d="M1006.933-64h-989.867c-9.421 0-17.067 7.68-17.067 17.067v989.867c0 9.421 7.646 17.067 17.067 17.067h989.867c9.387 0 17.067-7.646 17.067-17.067v-989.867c0-9.387-7.68-17.067-17.067-17.067zM34.133-29.867h955.733v955.733h-955.733v-955.733zM887.467 106.667h-750.933c-9.421 0-17.067 7.68-17.067 17.067s7.646 17.067 17.067 17.067h750.933c9.387 0 17.067-7.68 17.067-17.067s-7.68-17.067-17.067-17.067zM358.4 366.148c-2.935 0-5.905 0.717-8.533 2.253-5.291 3.038-8.533 8.67-8.533 14.814v394.103c0 6.11 3.243 11.742 8.533 14.78 5.257 3.038 11.81 3.038 17.067 0l341.333-197.052c5.257-3.038 8.533-8.67 8.533-14.78s-3.277-11.742-8.533-14.78l-341.333-197.086c-2.628-1.536-5.598-2.253-8.533-2.253zM375.467 747.759v-335.019l290.133 167.561-290.133 167.458zM285.491 42.667c-44.715 0-81.067 36.318-81.067 81.067s36.352 81.067 81.067 81.067c44.715 0 81.067-36.386 81.067-81.067s-36.386-81.067-81.067-81.067zM285.491 170.667c-25.873 0-46.933-21.060-46.933-46.933s21.060-46.933 46.933-46.933c25.873 0 46.933 21.060 46.933 46.933 0 25.907-21.060 46.933-46.933 46.933z" />
<glyph unicode="&#xe605;" d="M418.509 233.882c-2.799 0-5.564 0.683-8.090 2.048-5.53 2.97-8.977 8.738-8.977 15.019v394.103c0 6.281 3.447 12.049 8.977 15.019s12.22 2.697 17.476-0.785l298.667-197.018c4.813-3.174 7.714-8.533 7.714-14.268s-2.867-11.093-7.714-14.234l-298.667-197.086c-2.833-1.877-6.11-2.799-9.387-2.799zM435.575 613.376v-330.718l250.607 165.376-250.607 165.342zM512 925.867c263.509 0 477.867-214.357 477.867-477.867 0-263.543-214.357-477.867-477.867-477.867s-477.867 214.323-477.867 477.867c0 263.509 214.357 477.867 477.867 477.867zM512 960c-282.761 0-512-229.239-512-512s229.239-512 512-512c282.795 0 512 229.239 512 512s-229.274 512-512 512v0z" />
<glyph unicode="&#xe606;" d="M396.834 215.723c-95.744 0-185.685 37.239-253.406 104.926s-104.994 157.73-104.994 253.44c0 95.744 37.308 185.685 104.994 253.372 67.652 67.755 157.662 105.062 253.406 105.062 95.778 0 185.754-37.308 253.406-105.062 67.652-67.652 104.994-157.628 104.994-253.372s-37.342-185.719-104.994-253.44c-67.721-67.686-157.662-104.926-253.406-104.926zM396.834 898.389c-86.562 0-168.038-33.758-229.274-95.061-61.269-61.201-94.993-142.643-94.993-229.239s33.724-168.073 94.993-229.342c61.235-61.201 142.711-94.925 229.274-94.925 86.596 0 168.004 33.724 229.274 94.925 61.269 61.269 94.993 142.78 94.993 229.342 0 86.596-33.724 168.004-94.993 229.239-61.235 61.303-142.643 95.061-229.274 95.061zM381.918 413.867c-9.421 0-17.067 7.68-17.067 17.067v307.2c0 9.421 7.646 17.067 17.067 17.067s17.067-7.646 17.067-17.067v-307.2c0-9.387-7.646-17.067-17.067-17.067zM535.518 567.467h-307.2c-9.421 0-17.067 7.646-17.067 17.067s7.646 17.067 17.067 17.067h307.2c9.387 0 17.067-7.646 17.067-17.067s-7.646-17.067-17.067-17.067zM918.187-36.557c-17.067 0-33.143 6.656-45.193 18.773l-292.011 293.137 93.662 94.037 292.215-293.171c24.917-24.986 24.917-65.673-0.068-90.624l-3.345-3.379c-12.117-12.117-28.126-18.773-45.261-18.773zM629.214 275.251l268.015-269.005c11.196-11.196 30.857-11.264 42.121 0l3.345 3.379c11.674 11.708 11.742 30.686 0.068 42.428l-268.083 268.868-45.466-45.67z" />
<glyph unicode="&#xe607;" d="M396.834 215.723c-95.744 0-185.685 37.239-253.406 104.926s-104.994 157.73-104.994 253.44c0 95.744 37.308 185.685 104.994 253.372 67.652 67.755 157.662 105.062 253.406 105.062 95.778 0 185.754-37.308 253.406-105.062 67.652-67.652 104.994-157.628 104.994-253.372s-37.342-185.719-104.994-253.44c-67.721-67.686-157.662-104.926-253.406-104.926zM396.834 898.389c-86.562 0-168.038-33.758-229.274-95.061-61.269-61.201-94.993-142.643-94.993-229.239s33.724-168.073 94.993-229.342c61.235-61.201 142.711-94.925 229.274-94.925 86.596 0 168.004 33.724 229.274 94.925 61.269 61.269 94.993 142.78 94.993 229.342 0 86.596-33.724 168.004-94.993 229.239-61.235 61.303-142.643 95.061-229.274 95.061zM535.518 567.467h-307.2c-9.421 0-17.067 7.646-17.067 17.067s7.646 17.067 17.067 17.067h307.2c9.387 0 17.067-7.646 17.067-17.067s-7.646-17.067-17.067-17.067zM918.187-36.557c-17.067 0-33.143 6.656-45.193 18.773l-292.011 293.137 93.662 94.037 292.215-293.171c24.917-24.986 24.917-65.673-0.068-90.624l-3.345-3.379c-12.117-12.117-28.126-18.773-45.261-18.773zM629.214 275.251l268.015-269.005c11.196-11.196 30.857-11.264 42.121 0l3.345 3.379c11.742 11.708 11.742 30.686 0.068 42.428l-268.083 268.868-45.466-45.67z" />
<glyph unicode="&#xe608;" d="M398.234 199.714c-96.495 0-187.255 37.683-255.488 106.189-140.937 141.449-140.937 371.507 0 512.853 68.233 68.54 158.993 106.291 255.488 106.291 96.529 0 187.29-37.751 255.556-106.291 140.937-141.346 140.937-371.405 0-512.819-68.267-68.54-158.993-106.223-255.556-106.223zM398.234 890.914c-87.415 0-169.574-34.167-231.322-96.222-127.659-128.068-127.659-336.521 0-464.691 61.815-61.986 143.974-96.119 231.322-96.119 87.415 0 169.609 34.133 231.424 96.154 127.59 128.137 127.59 336.623 0 464.657-61.85 62.020-144.009 96.222-231.424 96.222zM919.586-29.047c-17.067 0-33.143 6.656-45.193 18.773l-292.011 293.137 93.662 94.037 292.215-293.171c24.917-24.986 24.917-65.673-0.068-90.624l-3.345-3.379c-12.117-12.083-28.126-18.773-45.261-18.773zM630.613 282.795l268.015-269.005c11.196-11.196 30.857-11.264 42.121 0l3.345 3.379c11.674 11.708 11.742 30.686 0.068 42.428l-268.083 268.868-45.466-45.67z" />
<glyph unicode="&#xe609;" d="M364.783-10.923c-4.608 0-9.25 1.877-12.595 5.53-6.349 6.997-5.871 17.783 1.058 24.132l200.602 183.398c31.915 29.082 73.694 42.667 114.79 37.547 8.806-1.092 17.749-0.785 26.692-0.614l13.039 0.273c55.671 0 111.957 17.613 167.219 52.326 6.417 4.028 12.663 7.612 18.773 11.093 23.893 13.756 43.691 25.088 60.757 57.993h-222.959c-3.584 0-7.066 1.126-9.933 3.174l-108.851 77.858c-4.471 3.209-7.134 8.397-7.134 13.892v190.259c0 4.574 1.843 8.943 5.052 12.151l108.851 107.349c3.209 3.14 7.509 4.915 12.049 4.915h213.845c-58.402 65.468-143.223 102.4-237.636 102.4-132.983 0-252.86-87.62-298.257-217.975-0.478-1.502-3.209-12.39-9.045-76.459-4.574-49.732-29.355-96.358-68.028-127.966l-279.586-228.352c-7.339-5.973-18.022-4.847-23.962 2.423-6.007 7.305-4.915 18.057 2.355 24.030l279.586 228.352c31.642 25.839 51.917 64 55.637 104.619 6.656 72.806 9.557 81.067 10.752 84.617 50.21 144.077 182.955 240.879 330.547 240.879 117.931 0 222.481-52.395 286.891-143.735 3.618-5.188 4.096-12.049 1.161-17.715-2.935-5.632-8.772-9.216-15.121-9.216h-242.142l-98.816-97.485v-174.353l97.28-69.564h243.712c5.598 0 10.82-2.765 14.063-7.339 3.174-4.608 3.857-10.479 1.946-15.701-23.654-62.908-53.931-80.316-85.982-98.714-5.734-3.277-11.605-6.588-17.579-10.411-59.972-37.683-124.109-57.617-185.446-57.617l-12.117-0.205c-10.308-0.273-20.89-0.546-31.846 0.785-31.266 3.925-63.113-6.588-87.552-28.843l-200.533-183.398c-3.277-2.867-7.407-4.335-11.537-4.335z" />
<glyph unicode="&#xe60a;" d="M187.733 159.983c-103.526 0-187.733 84.207-187.733 187.733 0 103.492 84.207 187.733 187.733 187.733s187.733-84.207 187.733-187.733c0-103.526-84.241-187.733-187.733-187.733zM187.733 501.316c-84.685 0-153.6-68.915-153.6-153.6s68.915-153.6 153.6-153.6 153.6 68.949 153.6 153.6-68.949 153.6-153.6 153.6zM870.4 159.983c-103.526 0-187.733 84.207-187.733 187.733 0 103.492 84.207 187.733 187.733 187.733s187.733-84.207 187.733-187.733c0-103.526-84.275-187.733-187.733-187.733zM870.4 501.316c-84.651 0-153.6-68.915-153.6-153.6s68.949-153.6 153.6-153.6 153.6 68.949 153.6 153.6-68.949 153.6-153.6 153.6zM187.733 309.316c-6.656 0-12.732 3.823-15.531 9.933-2.97 6.485-1.57 14.131 3.447 19.217l256 256c2.321 2.321 5.257 3.925 8.499 4.608l298.667 64c7.27 1.536 14.541-1.673 18.261-7.953s3.072-14.268-1.707-19.831l-256-298.667c-2.97-3.482-7.168-5.564-11.742-5.871l-298.667-21.333c-0.444-0.102-0.853-0.102-1.229-0.102zM452.233 566.75l-220.092-220.092 245.931 17.613 218.453 254.839-244.292-52.361zM870.4 330.65c-6.895 0-13.414 4.198-16.009 11.059l-128 341.333c-3.345 8.806 1.195 18.637 10.001 21.982 8.806 3.311 18.671-1.161 21.982-10.001l128-341.333c3.311-8.806-1.161-18.603-9.967-22.016-2.014-0.614-3.994-1.024-6.007-1.024zM486.366 330.65c-8.363 0-15.667 6.144-16.896 14.677l-42.667 298.667c-1.331 9.318 5.154 17.988 14.473 19.319 9.25 1.331 17.954-5.154 19.319-14.473l42.667-298.667c1.331-9.284-5.154-17.954-14.473-19.285-0.785-0.171-1.604-0.239-2.423-0.239zM486.775 633.583h-136.533c-9.421 0-17.067 7.646-17.067 17.067s7.646 17.067 17.067 17.067h136.533c9.421 0 17.067-7.646 17.067-17.067s-7.646-17.067-17.067-17.067zM742.332 671.983c-2.935 0-5.871 0.751-8.602 2.355l-50.825 29.867c-8.090 4.813-10.82 15.223-6.11 23.381 4.813 8.124 15.258 10.82 23.415 6.076l50.825-29.867c8.090-4.745 10.82-15.223 6.11-23.381-3.209-5.393-8.909-8.431-14.814-8.431z" horiz-adv-x="1058" />
<glyph unicode="&#xe60b;" d="M968.158 67.823h-896c-7.612 0-14.302 5.018-16.384 12.356l-55.091 192.034c-0.444 1.468-0.683 3.038-0.683 4.676v512c0 88.644 83.558 166.4 178.825 166.4h682.667c91.136 0 162.509-73.079 162.509-166.4v-510.669l-39.117-196.71c-1.604-7.953-8.602-13.687-16.725-13.687zM85.026 101.956h869.137l36.045 179.644-0.341 507.324c0 74.138-56.388 132.267-128.375 132.267h-682.667c-77.073 0-144.691-61.815-144.691-132.267v-509.611l50.893-177.357zM802.133 750.49h-546.133c-9.421 0-17.067 7.646-17.067 17.067v68.267c0 9.421 7.646 17.067 17.067 17.067h546.133c9.387 0 17.067-7.646 17.067-17.067v-68.267c0-9.421-7.68-17.067-17.067-17.067zM273.067 784.623h512v34.133h-512v-34.133zM938.667 272.623h-819.2c-9.421 0-17.067 7.646-17.067 17.067v375.467c0 9.421 7.646 17.067 17.067 17.067h819.2c9.387 0 17.067-7.646 17.067-17.067v-375.467c0-9.421-7.68-17.067-17.067-17.067zM136.533 306.756h785.067v341.333h-785.067v-341.333zM494.933 289.69c-9.421 0-17.067 7.646-17.067 17.067v341.333c0 9.421 7.646 17.067 17.067 17.067s17.067-7.646 17.067-17.067v-341.333c0-9.421-7.646-17.067-17.067-17.067zM221.491 131.823c-32.939 0-59.733 26.795-59.733 59.733s26.795 59.733 59.733 59.733c32.939 0 59.733-26.795 59.733-59.733s-26.795-59.733-59.733-59.733zM221.491 217.156c-14.131 0-25.6-11.469-25.6-25.6s11.469-25.6 25.6-25.6c14.131 0 25.6 11.469 25.6 25.6s-11.503 25.6-25.6 25.6zM818.825 131.823c-32.973 0-59.733 26.795-59.733 59.733s26.761 59.733 59.733 59.733c32.939 0 59.733-26.795 59.733-59.733s-26.795-59.733-59.733-59.733zM818.825 217.156c-14.131 0-25.6-11.469-25.6-25.6s11.469-25.6 25.6-25.6c14.097 0 25.6 11.469 25.6 25.6s-11.503 25.6-25.6 25.6zM648.533 136.090h-238.933c-9.421 0-17.067 7.646-17.067 17.067s7.646 17.067 17.067 17.067h238.933c9.387 0 17.067-7.646 17.067-17.067s-7.68-17.067-17.067-17.067zM870.4-59.324c-46.251 0-85.333 36.796-85.333 80.282v46.899h34.133v-46.933c0-24.576 23.927-46.114 51.2-46.114 26.795 0 51.2 22.801 51.2 47.787v45.227h34.133v-45.193c0-43.622-39.868-81.954-85.333-81.954zM187.733-59.324c-46.251 0-85.333 36.796-85.333 80.282v46.899h34.133v-46.933c0-24.576 23.927-46.114 51.2-46.114 26.795 0 51.2 22.801 51.2 47.787v45.227h34.133v-45.193c0-43.622-39.868-81.954-85.333-81.954zM178.825 560.23c-4.369 0-8.738 1.673-12.083 4.983-6.656 6.656-6.656 17.476 0 24.166l41.779 41.847c6.656 6.656 17.476 6.656 24.166 0 6.656-6.656 6.656-17.476 0-24.166l-41.779-41.847c-3.345-3.311-7.714-4.983-12.083-4.983zM178.825 473.156c-4.335 0-8.704 1.638-12.083 4.949-6.69 6.656-6.724 17.442-0.068 24.132l128 128.887c6.656 6.69 17.442 6.724 24.166 0.102 6.69-6.622 6.724-17.442 0.068-24.132l-128-128.887c-3.311-3.345-7.714-5.052-12.083-5.052zM568.149 560.23c-4.267 0-8.465 1.57-11.81 4.745-6.793 6.519-7.066 17.306-0.546 24.166l40.004 41.813c6.451 6.827 17.271 7.066 24.132 0.546 6.793-6.519 7.066-17.306 0.546-24.132l-40.004-41.847c-3.345-3.482-7.817-5.291-12.322-5.291z" />
<glyph unicode="&#xe60c;" d="M893.611 67.823h-776.977c-7.168 0-13.551 4.471-16.043 11.196-1.331 3.652-32.324 90.863-32.324 293.786v403.729c0 159.915 312.252 178.381 449.434 178.756 0.171 0 0.307 0 0.478 0h3.994c0.137 0 0.307 0 0.478 0 162.987-0.444 433.118-24.474 433.118-178.756v-403.763c0-204.117-45.158-292.215-47.070-295.868-2.97-5.564-8.806-9.079-15.087-9.079zM129.297 101.956h753.152c10.718 26.658 39.151 112.265 39.151 270.848v403.729c0 90.249-150.050 144.316-401.476 144.623-201.933-0.239-417.724-38.366-417.724-144.623v-403.763c0-155.887 19.012-241.835 26.897-270.814zM514.082 251.153c-98.577 0-200.772 20.241-331.401 65.638-6.861 2.389-11.469 8.875-11.469 16.145 0.273 155.955 0 398.473 0 398.473 0.068 70.554 146.876 121.719 349.047 121.719 198.656 0 337.545-50.074 337.647-121.754 0-0.034-0.171-284.706 0-397.995 0-7.27-4.574-13.687-11.435-16.145-131.004-45.636-233.506-66.082-332.39-66.082zM205.346 345.088c121.378-41.267 217.020-59.767 308.736-59.767 92.023 0 187.904 18.637 309.623 60.279-0.137 120.183 0 385.809 0 385.809-0.034 30.549-89.088 87.654-303.514 87.654-219.75 0-314.88-57.993-314.914-87.586 0.068-0.068 0.307-230.298 0.068-386.389zM68.267 409.156h-51.2c-9.421 0-17.067 7.646-17.067 17.067v341.333c0 9.421 7.646 17.067 17.067 17.067h51.2c9.421 0 17.067-7.646 17.067-17.067s-7.646-17.067-17.067-17.067h-34.133v-307.2h34.133c9.421 0 17.067-7.646 17.067-17.067s-7.646-17.067-17.067-17.067zM1006.933 409.156h-51.2c-9.387 0-17.067 7.646-17.067 17.067s7.68 17.067 17.067 17.067h34.133v307.2h-34.133c-9.387 0-17.067 7.646-17.067 17.067s7.68 17.067 17.067 17.067h51.2c9.387 0 17.067-7.646 17.067-17.067v-341.333c0-9.421-7.68-17.067-17.067-17.067zM242.825 130.014c-32.939 0-59.733 26.795-59.733 59.733s26.795 59.733 59.733 59.733c32.939 0 59.733-26.795 59.733-59.733s-26.795-59.733-59.733-59.733zM242.825 215.347c-14.131 0-25.6-11.469-25.6-25.6s11.469-25.6 25.6-25.6c14.131 0 25.6 11.469 25.6 25.6s-11.503 25.6-25.6 25.6zM797.491 130.014c-32.973 0-59.733 26.795-59.733 59.733s26.761 59.733 59.733 59.733c32.939 0 59.733-26.795 59.733-59.733s-26.795-59.733-59.733-59.733zM797.491 215.347c-14.131 0-25.6-11.469-25.6-25.6s11.469-25.6 25.6-25.6c14.097 0 25.6 11.469 25.6 25.6s-11.503 25.6-25.6 25.6zM520.158 261.154c-4.369 0-8.738 1.673-12.083 4.983-6.656 6.656-6.656 17.51 0 24.132l128 128c6.656 6.656 17.476 6.656 24.132 0 6.656-6.622 6.656-17.476 0-24.132l-128-128c-3.311-3.311-7.68-4.983-12.049-4.983zM520.158 345.156c-6.793 0-13.21 4.096-15.872 10.752-3.482 8.806 0.819 18.671 9.591 22.153l215.996 85.333c8.738 3.482 18.671-0.853 22.118-9.626 3.482-8.772-0.819-18.671-9.591-22.153l-215.996-85.333c-2.048-0.683-4.164-1.126-6.246-1.126zM768-59.324c-46.251 0-85.333 36.796-85.333 80.282v46.899h34.133v-46.933c0-24.576 23.927-46.114 51.2-46.114 26.795 0 51.2 22.801 51.2 47.787v45.227h34.133v-45.193c0-43.622-39.868-81.954-85.333-81.954zM256-59.324c-46.251 0-85.333 36.796-85.333 80.282v46.899h34.133v-46.933c0-24.576 23.927-46.114 51.2-46.114 26.795 0 51.2 22.801 51.2 47.787v45.227h34.133v-45.193c0-43.622-39.868-81.954-85.333-81.954zM264.158 643.823c-4.369 0-8.738 1.673-12.083 5.018-6.656 6.656-6.656 17.442 0 24.132l42.667 42.667c6.656 6.656 17.476 6.656 24.132 0 6.656-6.69 6.656-17.476 0-24.132l-42.667-42.667c-3.311-3.345-7.68-5.018-12.049-5.018zM273.067 560.23c-4.198 0-8.431 1.536-11.708 4.642-6.861 6.485-7.168 17.271-0.717 24.132l119.091 126.259c6.485 6.861 17.271 7.168 24.132 0.717s7.168-17.271 0.717-24.132l-119.091-126.259c-3.379-3.55-7.919-5.359-12.425-5.359z" />
<glyph unicode="&#xe60d;" d="M704-19.217c-2.014 0-4.028 0.341-6.007 1.092-8.806 3.311-13.312 13.175-10.001 21.982l121.549 324.062-276.617 78.985-295.97-69.7 141.414-332.629c3.686-8.67-0.341-18.705-9.011-22.391-8.704-3.652-18.705 0.341-22.391 9.045l-149.333 351.3c-1.98 4.676-1.809 9.899 0.478 14.404 2.287 4.471 6.417 7.748 11.332 8.943l320 75.366c2.833 0.683 5.837 0.58 8.602-0.205l298.667-85.333c4.574-1.263 8.431-4.471 10.581-8.67 2.15-4.267 2.389-9.25 0.717-13.687l-128-341.333c-2.594-6.963-9.148-11.23-16.009-11.23zM776.909 373.316h-34.133v273.067h-443.733v-273.067h-34.133v290.133c0 9.421 7.646 17.067 17.067 17.067h477.867c9.421 0 17.067-7.646 17.067-17.067v-290.133zM691.575 646.383h-341.333c-9.421 0-17.067 7.646-17.067 17.067v102.4c0 9.421 7.646 17.067 17.067 17.067h341.333c9.421 0 17.067-7.646 17.067-17.067v-102.4c0-9.387-7.646-17.067-17.067-17.067zM367.309 680.516h307.2v68.267h-307.2v-68.267zM452.642 765.85c-9.421 0-17.067 7.646-17.067 17.067v102.4c0 9.421 7.646 17.067 17.067 17.067s17.067-7.646 17.067-17.067v-102.4c0-9.387-7.646-17.067-17.067-17.067zM623.309 765.85c-9.421 0-17.067 7.646-17.067 17.067v136.533c0 9.421 7.646 17.067 17.067 17.067s17.067-7.646 17.067-17.067v-136.533c0-9.387-7.646-17.067-17.067-17.067zM853.333-40.55c-32.939 0-59.733 26.795-59.733 59.733 0 14.131-11.469 25.6-25.6 25.6s-25.6-11.469-25.6-25.6c0-32.939-26.795-59.733-59.733-59.733s-59.733 26.795-59.733 59.733c0 14.131-11.469 25.6-25.6 25.6s-25.6-11.469-25.6-25.6c0-32.939-26.795-59.733-59.733-59.733s-59.733 26.795-59.733 59.733c0 14.131-11.469 25.6-25.6 25.6s-25.6-11.469-25.6-25.6c0-32.939-26.795-59.733-59.733-59.733s-59.733 26.795-59.733 59.733c0 14.131-11.469 25.6-25.6 25.6s-25.6-11.469-25.6-25.6c0-32.939-26.795-59.733-59.733-59.733s-59.733 26.795-59.733 59.733c0 9.387 7.646 17.067 17.067 17.067s17.067-7.68 17.067-17.067c0-14.131 11.469-25.6 25.6-25.6s25.6 11.469 25.6 25.6c0 32.939 26.795 59.733 59.733 59.733s59.733-26.795 59.733-59.733c0-14.131 11.469-25.6 25.6-25.6s25.6 11.469 25.6 25.6c0 32.939 26.795 59.733 59.733 59.733s59.733-26.795 59.733-59.733c0-14.131 11.469-25.6 25.6-25.6s25.6 11.469 25.6 25.6c0 32.939 26.795 59.733 59.733 59.733s59.733-26.795 59.733-59.733c0-14.131 11.469-25.6 25.6-25.6s25.6 11.469 25.6 25.6c0 32.939 26.795 59.733 59.733 59.733s59.733-26.795 59.733-59.733c0-14.131 11.469-25.6 25.6-25.6s25.6 11.469 25.6 25.6c0 9.387 7.646 17.067 17.067 17.067 9.387 0 17.067-7.68 17.067-17.067 0-32.87-26.795-59.733-59.733-59.733zM520.909 441.583h-136.533c-9.421 0-17.067 7.646-17.067 17.067v136.533c0 9.421 7.646 17.067 17.067 17.067h136.533c9.421 0 17.067-7.646 17.067-17.067v-136.533c0-9.387-7.646-17.067-17.067-17.067zM401.442 475.716h102.4v102.4h-102.4v-102.4zM657.442 441.583h-136.533c-9.421 0-17.067 7.646-17.067 17.067v136.533c0 9.421 7.646 17.067 17.067 17.067h136.533c9.421 0 17.067-7.646 17.067-17.067v-136.533c0-9.387-7.646-17.067-17.067-17.067zM537.975 475.716h102.4v102.4h-102.4v-102.4z" />
<glyph unicode="&#xe60e;" d="M510.669-40.55c-221.15 0-401.067 179.917-401.067 401.067s179.917 401.067 401.067 401.067c221.15 0 401.067-179.917 401.067-401.067-0.034-221.116-179.985-401.067-401.067-401.067zM510.669 727.45c-202.308 0-366.933-164.591-366.933-366.933s164.591-366.933 366.933-366.933 366.933 164.591 366.933 366.933c0 202.377-164.625 366.933-366.933 366.933zM916.002-61.884c-5.291 0-10.513 2.389-13.858 7.066l-106.667 147.456c-5.53 7.68-3.755 18.33 3.823 23.859s18.295 3.789 23.825-3.823l106.667-147.49c5.53-7.646 3.755-18.33-3.823-23.791-3.004-2.185-6.485-3.277-9.967-3.277zM105.301-61.884c-3.516 0-6.963 1.058-9.967 3.277-7.646 5.461-9.353 16.213-3.823 23.791l106.667 147.49c5.495 7.646 16.213 9.353 23.825 3.823s9.353-16.247 3.823-23.859l-106.667-147.456c-3.345-4.642-8.567-7.066-13.858-7.066zM753.681 653.679l-27.307 20.489 64.017 85.325 27.307-20.489-64.017-85.325zM272.99 648.96l-64 85.333 27.307 20.48 64-85.333-27.307-20.48zM510.669 343.45c-4.369 0-8.738 1.673-12.083 4.983-6.622 6.656-6.622 17.476 0 24.132l213.333 213.333c6.656 6.656 17.51 6.656 24.132 0 6.656-6.656 6.656-17.442 0-24.132l-213.333-213.333c-3.311-3.311-7.68-4.983-12.049-4.983zM510.669 343.45c-4.369 0-8.738 1.673-12.083 4.983l-128 128c-6.622 6.69-6.622 17.476 0 24.132 6.656 6.656 17.51 6.656 24.132 0l128-128c6.656-6.656 6.656-17.476 0-24.132-3.311-3.311-7.68-4.983-12.049-4.983zM213.333 915.217c55.159 0 105.131-25.839 136.943-68.506-110.899-36.932-207.394-112.128-270.814-211.012-24.371 30.14-38.161 68.096-38.161 107.418 0.034 94.891 77.21 172.1 172.032 172.1zM213.333 957.884c-118.579 0-214.665-96.085-214.665-214.699 0-72.533 36.25-136.465 91.409-175.309 62.737 127.044 180.907 221.764 323.243 251.733-30.857 80.691-108.442 138.274-199.987 138.274v0zM810.667 915.217c94.788 0 171.998-77.175 171.998-172.032 0-40.38-14.268-78.985-39.561-109.5-62.942 99.191-159.164 174.797-269.961 212.207 31.778 43.11 81.988 69.325 137.523 69.325zM810.667 957.884c-91.75 0-169.506-57.822-200.192-138.82 141.824-30.754 259.379-125.679 321.536-252.757 56.32 38.707 93.321 103.424 93.321 176.913 0 118.579-96.119 214.665-214.665 214.665v0z" />
<glyph unicode="&#xe60f;" d="M401.818 716.8c188.45 0 341.333-152.849 341.333-341.333 0-188.45-152.883-341.333-341.333-341.333-188.518 0-341.333 152.883-341.333 341.333 0 188.484 152.815 341.333 341.333 341.333zM401.818 759.467c-211.729 0-384-172.237-384-384s172.271-384 384-384c211.729 0 384 172.237 384 384s-172.271 384-384 384v0zM913.783 358.4c-9.387 0-17.067 7.68-17.067 17.067 0 272.93-222.037 494.933-494.933 494.933-9.421 0-17.067 7.646-17.067 17.067s7.646 17.067 17.067 17.067c291.703 0 529.067-237.329 529.067-529.067 0-9.387-7.612-17.067-17.067-17.067zM913.783 347.716c-5.188 0-10.103 2.321-13.38 6.417l-110.626 138.684c-5.871 7.373-4.676 18.125 2.697 23.962 7.441 5.905 18.091 4.71 23.996-2.662l93.491-117.248 63.659 135.817c3.994 8.533 14.131 12.22 22.733 8.192 8.533-3.994 12.151-14.165 8.158-22.699l-75.366-160.7c-2.458-5.291-7.612-9.011-13.483-9.66-0.546-0.102-1.263-0.102-1.877-0.102zM401.818 358.4c-4.369 0-8.738 1.673-12.083 4.983-6.656 6.656-6.656 17.476 0 24.132l170.667 170.667c6.656 6.656 17.476 6.656 24.132 0s6.656-17.442 0-24.132l-170.667-170.667c-3.311-3.311-7.68-4.983-12.049-4.983zM401.818 358.4c-4.369 0-8.738 1.673-12.083 4.983l-128 128c-6.656 6.69-6.656 17.476 0 24.132s17.476 6.656 24.132 0l128-128c6.656-6.656 6.656-17.476 0-24.132-3.311-3.311-7.68-4.983-12.049-4.983z" />
<glyph unicode="&#xe610;" d="M512 903.202c251.017 0 455.202-204.186 455.202-455.202s-204.186-455.202-455.202-455.202c-251.017 0-455.202 204.186-455.202 455.202s204.186 455.202 455.202 455.202zM512 937.335c-270.234 0-489.335-219.102-489.335-489.335s219.068-489.335 489.335-489.335 489.335 219.068 489.335 489.335c0 270.234-219.102 489.335-489.335 489.335v0zM512 561.766c-140.39 0-271.462 63.010-359.595 172.885-5.905 7.339-4.71 18.091 2.628 23.996 7.373 5.939 18.091 4.71 23.996-2.628 81.647-101.751 202.991-160.119 332.971-160.119 130.014 0 251.324 58.368 332.971 160.119 5.905 7.339 16.623 8.533 23.996 2.628 7.339-5.905 8.533-16.623 2.628-23.996-88.166-109.875-219.273-172.885-359.595-172.885zM860.262 133.052c-4.983 0-9.967 2.15-13.414 6.417-82.057 102.4-204.151 161.143-334.95 161.143s-252.791-58.778-334.95-161.143c-5.871-7.339-16.589-8.567-23.962-2.628-7.373 5.905-8.533 16.623-2.628 23.996 88.678 110.49 220.433 173.909 361.574 173.909s272.896-63.351 361.574-173.909c5.939-7.339 4.745-18.091-2.594-23.996-3.14-2.492-6.895-3.789-10.65-3.789zM509.44-34.099c-9.387 0-17.067 7.68-17.067 17.067v915.968c0 9.421 7.68 17.067 17.067 17.067 9.421 0 17.067-7.646 17.067-17.067v-915.968c0-9.387-7.646-17.067-17.067-17.067zM970.24 421.069h-921.6c-9.387 0-17.067 7.68-17.067 17.067 0 9.421 7.68 17.067 17.067 17.067h921.6c9.421 0 17.067-7.646 17.067-17.067 0-9.387-7.646-17.067-17.067-17.067z" />
<glyph unicode="&#xe611;" d="M320.034-53.35h-170.667c-5.257 0-10.206 2.423-13.483 6.554-147.251 188.484-97.348 338.91-44.476 498.142 27.136 81.783 55.228 166.298 62.259 264.533 0 10.889-2.048 24.064-4.164 37.99-4.881 32.051-10.923 71.919 4.983 119.774 6.246 18.705 25.225 75.674 80.179 75.674 54.238 0 73.762-58.573 80.179-77.79 15.94-47.753 10.138-85.060 5.018-117.965-2.116-13.756-4.13-26.761-4.13-38.912 6.963-97.007 35.055-181.521 62.191-263.305 52.873-159.232 102.81-309.623-44.476-498.142-3.209-4.13-8.158-6.554-13.414-6.554zM157.764-19.217h153.873c129.843 170.974 85.333 304.981 33.929 459.81-27.819 83.763-56.559 170.359-63.898 272.862-0.034 15.974 2.15 30.242 4.506 45.363 4.745 30.515 9.626 62.020-3.652 101.922-16.111 48.265-34.031 54.477-47.821 54.477-14.131 0-32.358-5.939-47.821-52.326-13.346-40.038-8.397-72.465-3.618-103.834 2.321-15.258 4.506-29.696 4.506-44.373-7.373-103.697-36.113-190.293-63.932-274.057-51.439-154.897-95.915-288.905 33.929-459.844zM926.276 390.383h-819.2c-9.421 0-17.067 7.646-17.067 17.067s7.646 17.067 17.067 17.067h819.2c9.387 0 17.067-7.646 17.067-17.067s-7.68-17.067-17.067-17.067zM960.41 219.716h-887.467c-9.421 0-17.067 7.646-17.067 17.067s7.646 17.067 17.067 17.067h887.467c9.387 0 17.067-7.646 17.067-17.067s-7.68-17.067-17.067-17.067zM635.392 381.85c-7.202 0-13.892 4.608-16.247 11.878-5.53 17.271-11.401 34.748-17.374 52.463-27.921 82.944-56.798 168.721-64.137 271.531-0.034 16.077 2.15 30.174 4.54 45.090 4.676 29.628 9.523 60.279-3.721 100.079-15.462 46.387-33.69 52.326-47.787 52.326-9.421 0-17.067 7.646-17.067 17.067s7.646 17.067 17.067 17.067c54.921 0 73.967-56.934 80.179-75.674 15.906-47.684 10.138-84.070 5.018-116.19-2.116-13.551-4.13-26.351-4.13-38.537 6.997-97.246 35.123-180.941 62.396-261.837 6.007-17.886 11.947-35.499 17.51-52.941 2.867-9.011-2.116-18.569-11.059-21.47-1.673-0.58-3.447-0.853-5.188-0.853zM576.034-53.35h-170.667c-6.827 0-12.971 4.062-15.667 10.377-8.67 20.139-16.418 30.003-23.927 39.526-4.676 5.939-9.079 11.537-13.244 18.534-4.847 8.090-2.185 18.603 5.905 23.45s18.569 2.15 23.381-5.939c3.379-5.632 6.963-10.138 10.752-14.916 6.793-8.67 14.985-19.081 23.723-36.864h151.586c20.617 26.18 39.629 58.982 56.491 97.553 3.755 8.636 13.687 12.595 22.426 8.806 8.67-3.755 12.595-13.824 8.841-22.46-19.49-44.715-41.916-82.33-66.526-111.889-3.243-3.959-8.055-6.178-13.073-6.178zM367.206 445.85c-1.809 0-3.618 0.273-5.427 0.887-8.943 3.004-13.756 12.663-10.752 21.606 28.262 84.105 52.19 161.075 58.675 251.767-0.034 10.957-2.116 23.757-4.233 37.308-5.086 32.119-10.854 68.506 5.018 116.19 6.246 18.705 25.225 75.674 80.179 75.674 9.421 0 17.067-7.646 17.067-17.067s-7.646-17.067-17.067-17.067c-14.131 0-32.358-5.939-47.821-52.326-13.244-39.799-8.397-70.417-3.721-100.079 2.389-14.985 4.608-29.082 4.608-43.93-6.793-95.915-31.369-175.104-60.382-261.427-2.389-7.066-9.011-11.537-16.145-11.537zM874.701-53.35h-170.667c-5.257 0-10.24 2.423-13.483 6.554-147.251 188.484-97.348 338.91-44.476 498.142 27.136 81.783 55.228 166.298 62.259 264.533-0.034 10.889-2.082 24.064-4.198 38.025-4.881 32.017-10.889 71.885 5.018 119.74 6.246 18.705 25.225 75.674 80.179 75.674 54.272 0 73.796-58.573 80.213-77.79 15.94-47.753 10.138-85.060 4.983-117.965-2.116-13.756-4.13-26.761-4.13-38.912 6.929-97.007 35.021-181.521 62.191-263.305 52.873-159.232 102.81-309.623-44.51-498.142-3.174-4.13-8.158-6.554-13.38-6.554zM712.397-19.217h153.907c129.843 170.974 85.333 304.981 33.929 459.81-27.819 83.763-56.559 170.359-63.898 272.862-0.034 15.974 2.15 30.242 4.506 45.363 4.779 30.515 9.626 62.020-3.618 101.922-16.145 48.265-34.065 54.477-47.821 54.477-14.131 0-32.358-5.939-47.821-52.326-13.346-40.038-8.397-72.465-3.584-103.834 2.287-15.258 4.506-29.696 4.506-44.373-7.373-103.697-36.113-190.293-63.932-274.057-51.507-154.897-95.983-288.905 33.826-459.844z" />
<glyph unicode="&#xe612;" d="M386.492 40.516c-9.387 0-17.067 7.68-17.067 17.067v870.4c0 9.421 7.68 17.067 17.067 17.067h349.491c7.748 0 14.541-5.222 16.486-12.732 1.98-7.475-1.331-15.394-8.090-19.183l-334.78-189.884c-1.946-1.092-3.959-1.809-6.076-2.082v-663.586c0.034-9.387-7.578-17.067-17.033-17.067zM403.558 910.916v-151.859l267.742 151.859h-267.742zM373.35-49.084c-58.368 0-102.4 25.668-102.4 59.733s44.032 59.733 102.4 59.733 102.4-25.668 102.4-59.733-44.066-59.733-102.4-59.733zM373.35 36.25c-42.359 0-68.267-16.521-68.267-25.6s25.907-25.6 68.267-25.6 68.267 16.521 68.267 25.6-25.941 25.6-68.267 25.6zM629.35-6.417c-44.749 0-81.067 36.318-81.067 81.067s36.318 81.067 81.067 81.067c44.715 0 81.067-36.318 81.067-81.067s-36.42-81.067-81.067-81.067zM629.35 121.583c-25.873 0-46.933-21.060-46.933-46.933s21.060-46.933 46.933-46.933 46.933 21.060 46.933 46.933-21.094 46.933-46.933 46.933z" />
<glyph unicode="&#xe613;" d="M512-57.924c-142.746 0-258.833 116.087-258.833 258.799 0 142.746 116.087 258.833 258.833 258.833s258.833-116.122 258.833-258.833c0-142.711-116.122-258.799-258.833-258.799zM512 425.54c-123.938 0-224.7-100.796-224.7-224.666 0-123.938 100.762-224.734 224.7-224.734 123.904 0 224.7 100.796 224.7 224.734 0 123.87-100.796 224.666-224.7 224.666zM512 36.25c-90.761 0-164.591 73.865-164.591 164.625s73.83 164.557 164.591 164.557c90.726 0 164.591-73.796 164.591-164.557s-73.865-164.625-164.591-164.625zM512 331.332c-71.919 0-130.458-58.539-130.458-130.458s58.539-130.458 130.458-130.458 130.458 58.539 130.458 130.458-58.539 130.458-130.458 130.458zM511.966 452.198c-7.543 0-14.438 5.018-16.452 12.629l-126.259 467.593c-2.458 9.114 2.935 18.466 12.083 20.924 9.045 2.423 18.466-2.901 20.89-12.015l126.225-467.593c2.458-9.114-2.935-18.466-12.049-20.924-1.434-0.41-2.935-0.614-4.437-0.614zM309.214 315.46c-7.373 0-14.165 4.813-16.35 12.186l-179.473 604.331c-2.697 9.045 2.492 18.534 11.503 21.231 9.114 2.662 18.534-2.458 21.231-11.503l179.439-604.297c2.697-9.079-2.423-18.534-11.503-21.265-1.638-0.444-3.277-0.683-4.847-0.683zM512 452.198c-1.468 0-3.004 0.205-4.506 0.614-9.114 2.458-14.473 11.844-12.049 20.924l126.225 467.593c2.458 9.114 11.913 14.438 20.89 12.015 9.148-2.458 14.507-11.81 12.083-20.924l-126.225-467.593c-2.014-7.578-8.909-12.629-16.418-12.629zM714.752 315.46c-1.604 0-3.243 0.239-4.847 0.717-9.079 2.662-14.199 12.151-11.503 21.197l179.439 604.365c2.697 9.045 12.083 14.165 21.231 11.503 9.045-2.697 14.199-12.186 11.503-21.231l-179.439-604.365c-2.219-7.373-9.011-12.186-16.384-12.186z" />
<glyph unicode="&#xe614;" d="M512 245.589c-195.789 0-355.055 159.334-355.055 355.055 0 195.789 159.3 355.089 355.055 355.089s355.055-159.3 355.055-355.055c0-195.755-159.266-355.089-355.055-355.089zM512 921.634c-177.015 0-320.922-143.974-320.922-320.922s143.974-320.922 320.922-320.922 320.922 143.974 320.922 320.922-143.94 320.922-320.922 320.922zM776.67-59.699c-1.673 0-3.379 0.239-4.983 0.751l-266.684 81.783c-7.168 2.15-12.083 8.806-12.083 16.316v223.505c0 9.421 7.646 17.067 17.067 17.067 9.387 0 17.067-7.646 17.067-17.067v-210.91l229.308-70.383-45.739 355.601c-1.195 9.284 5.359 17.852 14.746 19.115 9.557 1.263 17.886-5.427 19.149-14.78l49.084-381.884c0.717-5.734-1.502-11.469-5.939-15.189-3.106-2.526-7.031-3.925-10.991-3.925zM243.337-59.699c-3.959 0-7.851 1.399-10.991 4.028-4.437 3.721-6.622 9.455-5.939 15.189l49.562 385.058c1.229 9.318 9.626 16.009 19.149 14.814 9.318-1.195 15.94-9.796 14.746-19.149l-46.251-358.775 229.342 70.349v210.944c0 9.387 7.646 17.067 17.067 17.067 9.387 0 17.067-7.68 17.067-17.067v-223.539c0-7.543-4.949-14.131-12.083-16.35l-266.684-81.783c-1.604-0.546-3.277-0.785-4.983-0.785zM506.129 460.834c-9.421 0-17.067 7.646-17.067 17.067v210.978l-57.378-47.855c-7.236-6.076-17.954-5.052-23.996 2.15-6.076 7.236-5.052 17.988 2.15 24.030l85.333 71.27c5.086 4.267 12.151 5.188 18.159 2.355s9.83-8.841 9.83-15.462v-247.467c0.034-9.421-7.612-17.067-17.033-17.067zM557.329 443.767h-102.4c-9.421 0-17.067 7.646-17.067 17.067s7.646 17.067 17.067 17.067h102.4c9.387 0 17.067-7.646 17.067-17.067s-7.646-17.067-17.067-17.067z" />
<glyph unicode="&#xe615;" d="M512.034 352.7c-138.786 0-251.733 112.913-251.733 251.733s112.947 251.733 251.733 251.733c138.752 0 251.733-112.913 251.733-251.733s-112.981-251.733-251.733-251.733zM512.034 822.033c-120.013 0-217.6-97.621-217.6-217.6s97.587-217.6 217.6-217.6c119.979 0 217.6 97.621 217.6 217.6s-97.621 217.6-217.6 217.6zM512.034 459.366c-80.009 0-145.067 65.092-145.067 145.067s65.058 145.067 145.067 145.067c79.974 0 145.067-65.092 145.067-145.067s-65.092-145.067-145.067-145.067zM512.034 715.366c-61.167 0-110.933-49.766-110.933-110.933s49.766-110.933 110.933-110.933 110.933 49.766 110.933 110.933-49.766 110.933-110.933 110.933zM433.835 39.834c-4.506 0-8.841 1.741-12.083 5.018l-149.026 148.924-224.666-74.889c-6.758-2.253-14.268-0.102-18.705 5.53-4.471 5.53-4.983 13.346-1.331 19.422l234.667 391.168c4.881 8.055 15.326 10.684 23.45 5.837s10.684-15.326 5.837-23.415l-210.944-351.607 190.908 63.659c6.144 2.082 12.902 0.478 17.476-4.13l135.134-135.066 70.895 283.614c2.287 9.148 11.537 14.746 20.651 12.39 9.182-2.253 14.746-11.537 12.425-20.685l-78.199-312.832c-1.468-5.939-6.076-10.684-12.015-12.254-1.434-0.478-2.97-0.683-4.471-0.683zM590.234 39.834c-1.502 0-3.072 0.205-4.574 0.649-5.939 1.604-10.513 6.349-12.015 12.254l-78.234 312.832c-2.287 9.182 3.277 18.432 12.425 20.685 9.148 2.287 18.364-3.311 20.651-12.39l70.929-283.614 135.134 135.066c4.574 4.608 11.366 6.212 17.476 4.13l190.908-63.659-210.944 351.607c-4.847 8.090-2.185 18.569 5.837 23.415 8.090 4.847 18.569 2.219 23.45-5.837l234.667-391.168c3.652-6.178 3.14-13.892-1.331-19.422-4.471-5.598-11.981-7.817-18.705-5.53l-224.666 74.889-148.992-148.89c-3.174-3.243-7.543-5.018-12.015-5.018z" />
<glyph unicode="&#xe616;" d="M174.558 56.013c-4.369 0-8.738 1.673-12.083 4.983l-120.695 120.627c-3.209 3.277-4.983 7.612-4.983 12.083s1.809 8.909 4.983 12.083l174.899 174.933c-61.952 121.037-39.083 270.131 57.651 366.865 59.631 59.631 138.923 92.467 223.266 92.467s163.601-32.836 223.3-92.467c123.017-123.051 123.017-323.379 0-446.532-59.597-59.597-138.854-92.399-223.198-92.399v0c-46.182 0-92.126 10.206-133.769 29.594l-177.323-177.22c-3.311-3.447-7.68-5.018-12.049-5.018zM78.029 193.673l96.563-96.529 173.909 173.875c5.257 5.257 13.278 6.451 19.9 3.106 39.697-20.514 84.446-31.369 129.365-31.369 75.196 0 145.818 29.252 199.066 82.466 109.739 109.807 109.739 288.495 0 398.234-53.248 53.18-123.938 82.466-199.134 82.466-75.23 0-145.954-29.286-199.134-82.466-89.020-89.020-107.895-227.772-45.875-337.442 3.789-6.588 2.628-14.985-2.799-20.514l-171.861-171.827zM239.326 396.169l129.997-129.707-24.107-24.166-129.997 129.707 24.107 24.166zM906.138 338.944c-21.675 0-41.984 8.397-57.276 23.654-15.326 15.326-23.723 35.669-23.723 57.344s8.397 42.018 23.723 57.31c30.549 30.583 83.934 30.618 114.586 0 15.292-15.292 23.689-35.635 23.689-57.31 0-21.641-8.397-41.95-23.689-57.344-15.258-15.258-35.635-23.654-57.31-23.654zM906.138 466.876c-12.527 0-24.269-4.881-33.143-13.722-8.943-8.875-13.79-20.617-13.79-33.143 0-12.595 4.949-24.371 13.722-33.28 17.749-17.681 48.674-17.749 66.389 0 8.875 8.875 13.687 20.617 13.687 33.212s-4.915 24.303-13.687 33.143c-8.772 8.909-20.651 13.79-33.178 13.79z" />
<glyph unicode="&#xe617;" d="M405.641 110.933c-4.369 0-8.738 1.673-12.083 4.983-6.656 6.622-6.656 17.476 0 24.132l316.109 316.041c6.622 6.656 17.476 6.656 24.132 0 6.622-6.656 6.622-17.476 0-24.132l-316.109-316.041c-3.277-3.311-7.68-4.983-12.049-4.983zM1000.346 264.533h-294.025c-9.421 0-17.067 7.68-17.067 17.067s7.646 17.067 17.067 17.067h250.3l-212.139 195.311c-6.929 6.383-7.373 17.169-0.99 24.098 6.417 6.963 17.169 7.373 24.132 0.99l244.326-224.905c5.12-4.779 6.895-12.22 4.335-18.773-2.628-6.554-8.943-10.854-15.94-10.854zM555.895 564.736c-5.427 0-10.82 2.628-14.097 7.475-5.325 7.817-3.311 18.432 4.54 23.723l165.751 112.435c6.793 4.574 15.906 3.755 21.641-2.048l38.707-38.673c6.622-6.656 6.622-17.476 0-24.132-6.656-6.656-17.51-6.656-24.132 0l-28.706 28.706-154.146-104.55c-2.935-1.98-6.246-2.935-9.557-2.935zM979.354 503.467h-75.469c-4.301 0-8.431 1.638-11.571 4.54l-104.687 96.87c-6.929 6.417-7.339 17.203-0.956 24.132 6.417 6.929 17.203 7.339 24.132 0.922l99.806-92.331h68.813c9.387 0 17.067-7.646 17.067-17.067s-7.68-17.067-17.135-17.067zM872.585 665.6c-32.939 0-59.767 26.795-59.767 59.733s26.829 59.733 59.767 59.733c32.905 0 59.699-26.795 59.699-59.733s-26.795-59.733-59.699-59.733zM872.585 750.933c-14.131 0-25.634-11.469-25.634-25.6s11.503-25.6 25.634-25.6c14.097 0 25.566 11.469 25.566 25.6s-11.435 25.6-25.566 25.6zM296.687 230.4h-273.067c-9.421 0-17.067 7.68-17.067 17.067s7.646 17.067 17.067 17.067h273.067c9.421 0 17.067-7.68 17.067-17.067s-7.646-17.067-17.067-17.067zM364.954 366.933h-341.333c-9.421 0-17.067 7.68-17.067 17.067s7.646 17.067 17.067 17.067h341.333c9.421 0 17.067-7.68 17.067-17.067s-7.646-17.067-17.067-17.067zM467.354 503.467h-443.733c-9.421 0-17.067 7.646-17.067 17.067s7.646 17.067 17.067 17.067h443.733c9.421 0 17.067-7.646 17.067-17.067s-7.646-17.067-17.067-17.067z" />
<glyph unicode="&#xe618;" d="M320 525.722c-2.833 0-5.7 0.717-8.294 2.15l-170.667 94.822c-5.427 3.004-8.772 8.704-8.772 14.916v134.315c0 9.421 7.646 17.067 17.067 17.067s17.067-7.646 17.067-17.067v-124.279l153.6-85.333 153.6 85.333v169.199l-133.12 69.803c-8.363 4.369-11.571 14.711-7.168 23.040 4.369 8.329 14.643 11.571 23.040 7.168l142.268-74.615c5.632-2.935 9.148-8.772 9.148-15.121v-189.542c0-6.212-3.379-11.913-8.772-14.916l-170.667-94.822c-2.628-1.399-5.495-2.116-8.329-2.116zM704 525.722c-2.355 0-4.745 0.512-6.929 1.468l-213.333 94.822c-6.178 2.731-10.138 8.875-10.138 15.599v189.542c0 6.246 3.413 11.981 8.875 14.985l162.918 89.122c8.26 4.506 18.603 1.502 23.177-6.758 4.54-8.26 1.502-18.637-6.758-23.177l-154.044-84.309v-168.346l195.413-86.869 154.453 85.811v126.020c0 9.421 7.646 17.067 17.067 17.067s17.067-7.646 17.067-17.067v-136.055c0-6.212-3.379-11.913-8.772-14.916l-170.667-94.822c-2.628-1.399-5.461-2.116-8.329-2.116zM349.491-26.658c-6.007 0-11.81 3.209-14.95 8.806-4.574 8.26-1.604 18.603 6.622 23.211l132.403 73.591v169.472l-153.6 85.333-153.6-85.333v-121.788c0-9.387-7.646-17.067-17.067-17.067s-17.067 7.68-17.067 17.067v131.857c0 6.212 3.379 11.913 8.772 14.916l170.667 94.754c5.12 2.867 11.435 2.867 16.555 0l170.667-94.754c5.427-3.004 8.772-8.704 8.772-14.916v-189.611c0-6.212-3.379-11.947-8.772-14.95l-141.175-78.404c-2.56-1.502-5.427-2.185-8.226-2.185zM657.476-34.85c-2.662 0-5.325 0.649-7.851 1.946l-166.844 86.63c-5.666 2.935-9.216 8.772-9.216 15.155v189.577c0 6.69 3.959 12.868 10.138 15.599l213.333 94.754c4.915 2.15 10.547 1.98 15.223-0.683l170.667-94.788c5.393-3.004 8.772-8.67 8.772-14.916v-132.71c0-9.421-7.646-17.067-17.067-17.067s-17.067 7.646-17.067 17.067v122.675l-154.453 85.811-195.413-86.869v-168.073l157.628-81.818c8.397-4.335 11.639-14.643 7.305-23.006-3.038-5.939-8.977-9.284-15.155-9.284zM147.388 241.323c-2.867 0-5.734 0.717-8.363 2.185l-105.95 59.392c-8.226 4.608-11.162 14.985-6.519 23.245 4.642 8.226 14.985 11.162 23.245 6.485l97.553-54.716 151.689 85.265v169.609l-151.62 85.197-95.095-53.794c-8.158-4.642-18.603-1.741-23.245 6.451s-1.741 18.603 6.451 23.279l103.458 58.539c5.154 2.935 11.537 2.97 16.759 0l168.721-94.788c5.359-3.004 8.704-8.704 8.704-14.882v-189.577c0-6.212-3.345-11.878-8.704-14.882l-168.721-94.822c-2.594-1.434-5.495-2.185-8.363-2.185zM874.667 241.323c-2.833 0-5.7 0.717-8.294 2.15l-170.667 94.822c-5.427 3.004-8.772 8.704-8.772 14.916v189.611c0 6.212 3.379 11.913 8.772 14.916l170.667 94.788c5.086 2.867 11.435 2.867 16.555 0l109.124-60.655c8.26-4.574 11.23-14.95 6.622-23.211-4.574-8.226-14.95-11.196-23.245-6.622l-100.864 56.047-153.6-85.299v-169.506l153.6-85.333 98.987 54.989c8.226 4.54 18.637 1.604 23.211-6.622 4.608-8.226 1.604-18.637-6.588-23.245l-107.349-59.597c-2.458-1.399-5.325-2.15-8.158-2.15zM512 925.867c263.509 0 477.867-214.357 477.867-477.867 0-263.543-214.357-477.867-477.867-477.867s-477.867 214.323-477.867 477.867c0 263.509 214.357 477.867 477.867 477.867zM512 960c-282.761 0-512-229.239-512-512s229.239-512 512-512c282.726 0 512 229.239 512 512s-229.274 512-512 512v0z" />
<glyph unicode="&#xe619;" d="M944.367 293.888h-921.634c-9.421 0-17.067 7.646-17.067 17.067v225.724c0 98.372 43.588 108.988 62.362 108.988 22.699 0 46.865-14.165 69.837-40.96 19.149-22.289 46.012-33.587 79.77-33.587 63.215 0 133.495 39.492 167.561 76.663 3.243 3.55 7.817 5.53 12.595 5.53 117.862 0 496.572-138.308 565.385-175.377 34.953-18.842 54.033-56.388 55.125-108.681 0.375-19.797-7.339-39.185-21.197-53.316-13.756-13.926-33.007-22.050-52.736-22.050zM39.799 328.021h904.567c10.615 0 20.992 4.369 28.433 11.981s11.605 17.988 11.401 28.672c-0.819 39.799-13.38 66.423-37.137 79.292-64.068 34.509-423.322 165.751-542.106 171.145-41.438-41.677-116.804-82.022-187.29-82.022-43.554 0-80.145 15.701-105.677 45.466-15.633 18.193-32.051 29.082-43.964 29.082-17.442 0-28.228-28.672-28.228-74.854v-208.759zM39.799 396.288h955.733v-34.133h-955.733v34.133zM125.133 242.688c-9.421 0-17.067 7.646-17.067 17.067v34.133c0 9.421 7.646 17.067 17.067 17.067 9.387 0 17.067-7.646 17.067-17.067v-34.133c0-9.421-7.68-17.067-17.067-17.067zM295.799 242.688c-9.421 0-17.067 7.646-17.067 17.067v34.133c0 9.421 7.646 17.067 17.067 17.067 9.387 0 17.067-7.646 17.067-17.067v-34.133c0-9.421-7.68-17.067-17.067-17.067zM705.399 242.688c-9.421 0-17.067 7.646-17.067 17.067v34.133c0 9.421 7.646 17.067 17.067 17.067 9.387 0 17.067-7.646 17.067-17.067v-34.133c0-9.421-7.68-17.067-17.067-17.067zM876.066 242.688c-9.421 0-17.067 7.646-17.067 17.067v34.133c0 9.421 7.646 17.067 17.067 17.067 9.387 0 17.067-7.646 17.067-17.067v-34.133c0-9.421-7.68-17.067-17.067-17.067z" />
<glyph unicode="&#xe61a;" d="M800.427 385.468c-20.139 0-42.121 8.329-65.843 31.983-35.43 35.43-57.207 23.62-95.812-2.116-34.679-23.074-82.022-54.716-138.854 2.116-35.43 35.43-57.207 23.62-95.812-2.116-34.679-23.074-82.022-54.716-138.854 2.116-35.43 35.43-57.207 23.62-95.812-2.116-34.679-23.074-82.022-54.716-138.854 2.116-6.656 6.622-6.656 17.476 0 24.166s17.476 6.656 24.132 0c35.362-35.362 57.139-23.586 95.812 2.15 34.645 23.074 81.988 54.716 138.854-2.15 35.396-35.396 57.173-23.586 95.812 2.15 34.645 23.074 82.022 54.716 138.854-2.15 35.396-35.396 57.173-23.586 95.812 2.15 34.645 23.074 81.988 54.716 138.854-2.15 35.396-35.396 57.173-23.586 95.812 2.15 34.645 23.074 81.988 54.716 138.854-2.15 6.656-6.656 6.656-17.476 0-24.132s-17.476-6.656-24.132 0c-35.43 35.43-57.207 23.62-95.812-2.15-20.207-13.517-44.749-29.867-73.011-29.867zM800.427 206.268c-20.139 0-42.155 8.329-65.843 32.017-35.396 35.396-57.207 23.586-95.778-2.15-34.679-23.074-82.057-54.75-138.889 2.15-35.396 35.396-57.207 23.586-95.778-2.15-34.679-23.074-82.057-54.75-138.889 2.15-35.396 35.396-57.173 23.586-95.778-2.15-34.679-23.074-82.057-54.75-138.889 2.15-6.656 6.656-6.656 17.476 0 24.132s17.476 6.656 24.132 0c35.43-35.396 57.207-23.586 95.812 2.15 34.645 23.074 82.022 54.716 138.854-2.15 35.43-35.396 57.207-23.586 95.812 2.15 34.611 23.074 82.022 54.716 138.854-2.15 35.43-35.396 57.207-23.586 95.812 2.15 34.645 23.074 82.022 54.716 138.854-2.15 35.43-35.396 57.207-23.586 95.812 2.15 34.645 23.074 82.022 54.716 138.854-2.15 6.656-6.656 6.656-17.476 0-24.132s-17.476-6.656-24.132 0c-35.396 35.396-57.207 23.586-95.778-2.15-20.173-13.517-44.783-29.867-73.045-29.867zM800.427 27.068c-20.139 0-42.155 8.329-65.843 31.983-35.396 35.396-57.139 23.552-95.812-2.15-34.645-23.074-82.057-54.716-138.854 2.15-35.396 35.396-57.139 23.552-95.812-2.15-34.645-23.074-82.091-54.716-138.854 2.15-35.396 35.396-57.139 23.552-95.812-2.15-34.645-23.074-82.057-54.716-138.854 2.15-6.656 6.622-6.656 17.51 0 24.132s17.476 6.622 24.132 0c35.43-35.396 57.207-23.552 95.812 2.15 34.679 23.074 82.057 54.75 138.854-2.15 35.43-35.396 57.207-23.552 95.812 2.15 34.645 23.074 82.057 54.75 138.854-2.15 35.43-35.396 57.207-23.552 95.812 2.15 34.679 23.074 82.022 54.75 138.854-2.15 35.43-35.396 57.207-23.552 95.812 2.15 34.679 23.074 82.057 54.75 138.854-2.15 6.656-6.622 6.656-17.51 0-24.132s-17.476-6.622-24.132 0c-35.396 35.396-57.139 23.552-95.812-2.15-20.139-13.483-44.749-29.833-73.011-29.833zM623.343 506.3c-9.421 0-17.067 7.646-17.067 17.067v187.733c0 87.040 70.827 157.867 157.867 157.867 9.387 0 17.067-7.646 17.067-17.067s-7.68-17.067-17.067-17.067c-68.233 0-123.733-55.501-123.733-123.733v-187.733c0-9.387-7.68-17.067-17.067-17.067zM828.143 506.3c-9.421 0-17.067 7.646-17.067 17.067v187.733c0 87.040 70.827 157.867 157.867 157.867 9.387 0 17.067-7.646 17.067-17.067s-7.68-17.067-17.067-17.067c-68.233 0-123.733-55.501-123.733-123.733v-187.733c0-9.387-7.68-17.067-17.067-17.067zM811.076 694.033h-170.667c-9.421 0-17.067 7.646-17.067 17.067s7.646 17.067 17.067 17.067h170.667c9.387 0 17.067-7.646 17.067-17.067s-7.68-17.067-17.067-17.067zM811.076 557.5h-170.667c-9.421 0-17.067 7.646-17.067 17.067s7.646 17.067 17.067 17.067h170.667c9.387 0 17.067-7.646 17.067-17.067s-7.68-17.067-17.067-17.067z" />
<glyph unicode="&#xe61b;" d="M541.389 321.673c-68.847 0-125.611 20.378-164.181 58.914-115.575 115.61-41.165 363.964 63.488 468.582 62.635 62.635 159.334 101.581 252.416 101.581 73.933 0 139.435-24.815 184.422-69.803 53.009-53.009 77.141-131.209 67.891-220.194-8.533-82.944-44.851-161.894-99.669-216.678-72.021-72.124-197.188-122.402-304.367-122.402zM693.146 916.548c-84.343 0-171.793-35.089-228.284-91.58-95.505-95.505-161.963-321.775-63.488-420.284 40.448-40.448 98.441-48.913 140.049-48.913 98.85 0 214.050 46.217 280.269 112.401 48.64 48.572 82.261 121.856 89.907 196.028 8.090 78.575-12.527 146.978-58.129 192.58-38.571 38.537-95.505 59.767-160.324 59.767zM157.15 83.866v0c-4.54 0-8.875 1.843-12.083 4.983l-63.488 63.522c-6.656 6.622-6.656 17.476 0 24.132l190.464 190.464c6.417 6.417 17.749 6.417 24.132 0l63.488-63.454c6.656-6.656 6.656-17.476 0-24.132l-190.498-190.532c-3.14-3.174-7.441-4.983-12.015-4.983zM117.828 164.454l39.356-39.39 166.366 166.4-39.356 39.356-166.366-166.366zM296.209 342.869l-24.132 24.201c28.706 28.672 44.51 143.633 48.128 213.982l34.099-1.775c-1.604-31.437-11.981-190.327-58.095-236.407zM359.731 279.415l-24.132 24.132c29.594 29.594 107.964 47.275 239.514 53.999l2.628-33.997-0.887-0.068c-164.659-8.465-206.711-33.69-217.122-44.066zM478.583-54.75c-40.55 0-78.643 15.77-107.315 44.476-59.153 59.119-59.153 155.409 0 214.596 28.672 28.672 66.799 44.476 107.315 44.476 40.55 0 78.677-15.804 107.349-44.476s44.442-66.799 44.442-107.315c0-40.55-15.77-78.643-44.442-107.315-28.74-28.638-66.799-44.442-107.349-44.442zM478.583 214.63c-31.403 0-60.962-12.22-83.183-34.475-45.841-45.841-45.841-120.422 0-166.263 44.476-44.51 121.924-44.51 166.366 0 22.187 22.153 34.441 51.712 34.441 83.115s-12.22 60.928-34.441 83.183c-22.221 22.221-51.746 34.441-83.183 34.441zM605.15 72.738c-40.55 0-78.575 15.599-106.906 43.93-30.037 30.071-46.012 72.055-43.759 115.268 0.478 8.738 7.441 15.735 16.179 16.179 43.076 2.219 84.958-13.517 115.2-43.793 30.037-30.003 46.012-71.953 43.691-115.166-0.478-8.738-7.407-15.701-16.145-16.213-2.662-0.137-5.427-0.205-8.26-0.205zM488.858 213.743c2.219-27.75 13.824-53.248 33.553-72.977 19.593-19.593 45.193-31.3 72.943-33.553-2.15 27.75-13.79 53.214-33.519 72.875-19.627 19.661-45.227 31.369-72.977 33.655zM478.31-54.272c-40.653 0-78.677 15.633-107.042 43.998-30.071 30.037-46.012 71.987-43.725 115.2 0.478 8.704 7.441 15.667 16.145 16.145 43.213 2.287 84.924-13.483 115.2-43.657 30.037-30.071 45.978-72.055 43.759-115.234-0.444-8.704-7.441-15.701-16.145-16.179-2.697-0.205-5.427-0.273-8.192-0.273zM361.847 86.733c2.219-27.716 13.824-53.146 33.553-72.806 19.593-19.661 45.193-31.334 72.943-33.621-2.219 27.75-13.858 53.248-33.587 72.977-19.558 19.524-45.158 31.198-72.909 33.451z" />
<glyph unicode="&#xe61c;" d="M512 925.867c263.509 0 477.867-214.357 477.867-477.867 0-263.543-214.357-477.867-477.867-477.867s-477.867 214.323-477.867 477.867c0 263.509 214.357 477.867 477.867 477.867zM512 960c-282.761 0-512-229.239-512-512s229.239-512 512-512c282.726 0 512 229.239 512 512s-229.274 512-512 512v0zM512 925.867c136.055 0 263.782-57.173 354.543-157.867-90.761-100.659-218.487-157.867-354.543-157.867-136.090 0-263.817 57.207-354.543 157.867 90.726 100.693 218.453 157.867 354.543 157.867zM512 960c-161.587 0-305.493-75.093-399.326-192 93.833-116.907 237.739-192 399.326-192s305.459 75.093 399.326 192c-93.867 116.907-237.739 192-399.326 192v0zM512 285.867c136.055 0 263.782-57.173 354.543-157.867-90.761-100.659-218.487-157.867-354.543-157.867-136.090 0-263.817 57.207-354.543 157.867 90.726 100.693 218.453 157.867 354.543 157.867zM512 320c-161.587 0-305.493-75.093-399.326-192 93.833-116.907 237.739-192 399.326-192s305.459 75.093 399.326 192c-93.867 116.941-237.739 192-399.326 192v0z" />
<glyph unicode="&#xe61d;" d="M170.701 46.933c-6.895 0-13.107 4.164-15.77 10.547-2.662 6.417-1.195 13.722 3.686 18.603 24.303 24.337 68.676 84.924 97.417 149.402-142.575 61.133-230.4 169.779-230.4 286.549-0.034 185.822 218.18 337.033 486.366 337.033s486.4-151.211 486.4-337.067c0-185.856-218.214-337.067-486.4-337.067-16.418 0-33.587 0.717-53.453 2.321-79.77-86.528-176.538-130.321-287.846-130.321zM512.034 814.933c-249.378 0-452.267-135.885-452.267-302.933 0-106.769 86.187-206.95 224.905-261.393 4.233-1.638 7.646-4.949 9.421-9.148 1.775-4.13 1.877-8.875 0.171-13.073-21.197-52.907-54.955-107.418-84.48-145.237 87.484 9.353 164.386 50.654 229.001 123.153 3.584 4.028 8.943 6.11 14.234 5.632 22.528-2.014 41.233-2.867 58.982-2.867 249.378 0 452.267 135.851 452.267 302.933 0.034 167.014-202.854 302.933-452.233 302.933z" />
<glyph unicode="&#xe61e;" d="M17.067 1.877c-2.833 0-5.666 0.717-8.226 2.15-5.461 2.97-8.841 8.704-8.841 14.916v858.112c0 9.421 7.646 17.067 17.067 17.067h989.867c9.387 0 17.067-7.646 17.067-17.067v-682.667c0-9.387-7.68-17.067-17.067-17.067h-709.359l-271.326-172.817c-2.799-1.707-6.007-2.628-9.182-2.628zM34.133 859.989v-809.95l249.31 158.686c2.731 1.741 5.905 2.662 9.216 2.662h697.207v648.533l-955.733 0.068z" />
<glyph unicode="&#xe61f;" d="M17.067 1.911c-2.833 0-5.666 0.717-8.226 2.116-5.461 2.97-8.841 8.704-8.841 14.95v730.59c0 93.867 90.317 144.521 175.275 144.521h689.766c95.095 0 158.959-58.095 158.959-144.521v-391.1c0-85.709-65.297-181.18-158.959-181.18h-567.467l-271.326-172.783c-2.799-1.673-6.007-2.594-9.182-2.594zM175.275 860.023c-68.437 0-141.141-38.707-141.141-110.387v-699.529l249.31 158.686c2.731 1.741 5.905 2.662 9.216 2.662h572.45c71.475 0 124.826 77.619 124.826 147.081v391.1c0 67.072-49.050 110.387-124.826 110.387h-689.835z" />
<glyph unicode="&#xe620;" d="M135.782 172.988c-6.895 0-13.107 4.164-15.77 10.547-2.662 6.417-1.195 13.722 3.686 18.603 16.896 16.93 47.275 58.266 67.925 103.014-102.878 45.5-166.025 125.133-166.025 210.705 0 137.762 160.768 249.822 358.4 249.822s358.4-112.060 358.4-249.822c0-137.728-160.802-249.719-358.4-249.719-12.527 0-24.849 0.58-37.001 1.468-58.607-62.805-129.638-94.618-211.217-94.618zM384.034 731.58c-178.79 0-324.267-96.734-324.267-215.689 0-75.674 61.542-146.876 160.631-185.788 4.233-1.673 7.646-4.983 9.421-9.114 1.775-4.198 1.877-8.875 0.171-13.141-13.995-34.85-35.43-70.656-55.364-97.792 57.958 8.806 109.193 37.82 152.678 86.596 3.584 3.994 8.704 6.144 14.199 5.666 13.961-1.195 28.092-2.048 42.53-2.048 178.756 0 324.267 96.734 324.267 215.62s-145.51 215.689-324.267 215.689zM895.351 130.321c-75.503 0-141.278 29.321-195.584 87.347-11.059-0.785-22.255-1.331-33.655-1.331-78.131 0-153.941 19.149-213.504 53.862-8.158 4.813-10.889 15.189-6.144 23.381 4.745 8.158 15.223 10.889 23.347 6.178 54.443-31.812 124.143-49.254 196.301-49.254 13.312 0 26.317 0.785 39.117 1.946 5.393 0.478 10.684-1.604 14.268-5.598 39.151-43.93 85.197-70.451 137.148-79.121-17.954 24.815-36.932 56.9-49.425 88.132-1.673 4.198-1.604 8.943 0.171 13.107 1.809 4.164 5.188 7.509 9.421 9.114 90.999 35.738 147.49 101.069 147.49 170.428 0 109.124-133.734 197.871-298.155 197.871-9.421 0-17.067 7.646-17.067 17.067s7.646 17.067 17.067 17.067c183.228 0 332.288-104.073 332.288-232.004 0-79.258-58.095-152.917-152.883-195.311 19.012-40.687 46.524-78.165 61.918-93.559 4.881-4.949 6.315-12.186 3.652-18.603-2.662-6.554-8.841-10.718-15.77-10.718z" />
<glyph unicode="&#xe621;" d="M1006.933 123.733h-989.867c-9.421 0-17.067 7.68-17.067 17.067v614.4c0 9.421 7.646 17.067 17.067 17.067h989.867c9.387 0 17.067-7.646 17.067-17.067v-614.4c0-9.387-7.68-17.067-17.067-17.067zM34.133 157.867h955.733v580.267h-955.733v-580.267zM520.124 342.016c-3.686 0-7.441 1.195-10.615 3.686l-383.966 303.309c-7.407 5.837-8.636 16.589-2.833 23.962 5.871 7.407 16.589 8.67 23.996 2.833l384-303.343c7.441-5.837 8.636-16.521 2.833-23.962-3.379-4.267-8.363-6.485-13.414-6.485zM520.158 342.016c-5.052 0-10.035 2.219-13.414 6.485-5.837 7.373-4.574 18.091 2.833 23.962l384 303.343c7.407 5.837 18.091 4.574 23.962-2.833 5.837-7.373 4.574-18.125-2.833-23.962l-384-303.309c-3.106-2.492-6.827-3.686-10.547-3.686zM136.158 227.123c-5.905 0-11.674 3.072-14.814 8.533-4.71 8.192-1.877 18.603 6.315 23.347l298.667 171.52c8.192 4.71 18.603 1.877 23.313-6.349 4.71-8.124 1.877-18.603-6.315-23.347l-298.667-171.486c-2.697-1.468-5.598-2.219-8.499-2.219zM904.124 227.123c-2.867 0-5.803 0.717-8.499 2.219l-298.667 171.486c-8.158 4.745-10.991 15.121-6.349 23.347 4.71 8.192 15.087 11.025 23.313 6.349l298.667-171.52c8.192-4.745 10.991-15.121 6.349-23.347-3.14-5.461-8.875-8.533-14.814-8.533z" />
<glyph unicode="&#xe622;" d="M925.491-64h-225.758c-9.387 0-17.067 7.68-17.067 17.067v375.467c0 9.387 7.68 17.067 17.067 17.067h127.863l32.017 102.4h-159.881c-9.387 0-17.067 7.646-17.067 17.067v147.217c0 46.763 50.893 74.684 136.158 74.684h34.509v102.4h-77.175c-89.19 0-161.758-65.058-161.758-145.067v-179.2c0-9.421-7.68-17.067-17.067-17.067h-153.6v-102.4h153.6c9.387 0 17.067-7.646 17.067-17.067v-375.467c0-9.421-7.68-17.067-17.067-17.067h-482.509c-56.866 0-114.825 55.979-114.825 110.933v810.633c0 58.607 60.621 102.4 114.825 102.4h810.667c55.228 0 98.509-44.988 98.509-102.4v-810.667c0-53.521-39.595-110.933-98.509-110.933zM716.8-29.867h208.691c37.99 0 64.375 40.482 64.375 76.8v810.667c0 38.912-27.682 68.267-64.375 68.267h-810.667c-36.557 0-80.691-30.447-80.691-68.267v-810.667c0-36.591 42.223-76.8 80.691-76.8h465.442v341.333h-153.6c-9.421 0-17.067 7.68-17.067 17.067v136.533c0 9.421 7.646 17.067 17.067 17.067h153.6v162.133c0 98.816 87.859 179.2 195.891 179.2h94.242c9.387 0 17.067-7.646 17.067-17.067v-136.533c0-9.421-7.68-17.067-17.067-17.067h-51.575c-47.104 0-102.025-10.615-102.025-40.55v-130.15h166.025c5.427 0 10.547-2.594 13.756-6.963 3.209-4.335 4.13-10.001 2.492-15.189l-42.667-136.533c-2.219-7.066-8.806-11.981-16.316-11.981h-123.29v-341.299z" />
<glyph unicode="&#xe623;" d="M563.2-64h-170.667c-9.421 0-17.067 7.68-17.067 17.067v426.667h-153.6c-9.421 0-17.067 7.68-17.067 17.067v170.667c0 9.421 7.646 17.067 17.067 17.067h153.6v164.489c0 116.326 98.475 210.978 219.546 210.978h207.121c9.387 0 17.067-7.646 17.067-17.067v-136.533c0-9.421-7.68-17.067-17.067-17.067h-124.006c-49.664 0-97.86-37.342-97.86-77.073v-127.727h205.517c5.291 0 10.411-2.526 13.551-6.793s4.267-9.83 2.765-14.985l-49.084-170.667c-2.014-7.305-8.67-12.356-16.282-12.356h-156.467v-426.667c0-9.387-7.68-17.067-17.067-17.067zM409.6-29.867h136.533v426.667c0 9.387 7.68 17.067 17.067 17.067h160.7l39.219 136.533h-199.919c-9.387 0-17.067 7.646-17.067 17.067v144.794c0 68.983 73.387 111.206 131.994 111.206h106.94v102.4h-190.054c-100.523 0-185.412-80.998-185.412-176.845v-181.555c0-9.421-7.646-17.067-17.067-17.067h-153.6v-136.533h153.6c9.421 0 17.067-7.68 17.067-17.067v-426.667z" />
<glyph unicode="&#xe624;" d="M326.827 452.267c-149.777 0-250.402 100.625-250.402 250.402 0 163.191 98.85 253.065 278.391 253.065h238.251c9.387 0 17.067-7.646 17.067-17.067s-7.68-17.067-17.067-17.067h-238.251c-159.812 0-244.258-75.708-244.258-218.931 0-131.379 84.89-216.269 216.269-216.269 90.317 0 175.616 82.705 176.435 83.558 6.724 6.622 17.51 6.485 24.132-0.205 6.588-6.724 6.519-17.51-0.171-24.132-3.857-3.789-95.949-93.355-200.397-93.355zM968.533 443.733h-307.2c-9.387 0-17.067 7.646-17.067 17.067s7.68 17.067 17.067 17.067h307.2c9.387 0 17.067-7.646 17.067-17.067s-7.68-17.067-17.067-17.067zM814.933 290.133c-9.387 0-17.067 7.68-17.067 17.067v307.2c0 9.421 7.68 17.067 17.067 17.067s17.067-7.646 17.067-17.067v-307.2c0-9.387-7.68-17.067-17.067-17.067zM351.471-59.733c-210.671 0-313.071 61.201-313.071 187.051 0 124.996 105.097 188.416 312.388 188.416 41.506 0 86.528-3.413 122.402-6.963-1.092 0.717-2.185 1.399-3.311 2.116-49.698 31.471-96.597 61.201-96.597 116.668 0 48.777 34.509 72.329 67.891 95.13 49.050 33.451 104.55 71.339 104.55 197.973 0 111.309-104.482 200.943-190.942 200.943-9.421 0-17.067 7.646-17.067 17.067s7.646 17.067 17.067 17.067c113.596 0 225.075-116.429 225.075-235.076 0-144.657-69.018-191.795-119.433-226.167-34.85-23.757-53.009-37.547-53.009-66.833 0-34.953 30.686-56.183 80.725-87.927 19.797-12.527 41.165-26.078 60.962-42.257 0.375-0.273 0.717-0.546 0.99-0.785 40.277-33.28 73.762-77.79 73.762-147.934 0-140.322-89.088-208.486-272.384-208.486zM350.822 281.6c-184.661 0-278.255-51.917-278.255-154.283 0-102.946 91.238-152.917 278.938-152.917 164.796 0 238.217 53.726 238.217 174.251 0 54.955-24.747 90.59-57.924 118.852-20.753 2.867-107.964 14.097-180.975 14.097z" />
<glyph unicode="&#xe625;" d="M878.933-64h-733.867c-79.974 0-145.067 65.058-145.067 145.067v733.867c0 80.009 65.092 145.067 145.067 145.067h733.867c79.974 0 145.067-65.058 145.067-145.067v-733.867c0-80.009-65.092-145.067-145.067-145.067zM145.067 925.867c-61.167 0-110.933-49.766-110.933-110.933v-733.867c0-61.167 49.766-110.933 110.933-110.933h733.867c61.167 0 110.933 49.766 110.933 110.933v733.867c0 61.167-49.766 110.933-110.933 110.933h-733.867zM520.158 200.533c-138.786 0-251.733 112.947-251.733 251.733s112.947 251.733 251.733 251.733 251.733-112.913 251.733-251.733c-0.034-138.786-112.947-251.733-251.733-251.733zM520.158 669.867c-119.979 0-217.6-97.587-217.6-217.6s97.621-217.6 217.6-217.6c119.979 0 217.6 97.587 217.6 217.6-0.034 119.979-97.621 217.6-217.6 217.6zM520.158 317.85c-74.103 0-134.417 60.348-134.417 134.417s60.314 134.383 134.417 134.383c74.103 0 134.417-60.279 134.417-134.383-0.034-74.103-60.314-134.417-134.417-134.417zM520.158 552.55c-55.296 0-100.284-44.954-100.284-100.25s44.988-100.284 100.284-100.284c55.33 0 100.284 44.988 100.284 100.284-0.034 55.262-45.056 100.25-100.284 100.25zM34.133 652.8h341.333v-34.133h-341.333v34.133zM648.533 652.8h341.333v-34.133h-304.367zM290.133 618.667h-136.533c-9.421 0-17.067 7.646-17.067 17.067v307.2c0 9.421 7.646 17.067 17.067 17.067h136.533c9.421 0 17.067-7.646 17.067-17.067v-307.2c0-9.421-7.646-17.067-17.067-17.067zM170.667 652.8h102.4v273.067h-102.4v-273.067zM870.4 721.067h-102.4c-9.387 0-17.067 7.646-17.067 17.067v102.4c0 9.421 7.68 17.067 17.067 17.067h102.4c9.387 0 17.067-7.646 17.067-17.067v-102.4c0-9.421-7.68-17.067-17.067-17.067zM785.067 755.2h68.267v68.267h-68.267v-68.267z" />
<glyph unicode="&#xe626;" d="M853.572 48.026h-393.694c-28.331 0-115.678 32.393-115.678 71.953v347.682c0 6.622 3.857 12.663 9.865 15.462 90.931 42.394 124.484 112.367 160.802 243.268v115.849c0 4.403 1.707 8.636 4.779 11.844 17.374 18.022 40.653 27.989 65.707 27.989 36.284 0 71.919-19.9 97.655-54.647 24.61-33.143 59.221-106.325 26.726-233.233h184.798c42.189 0 126.566-47.070 126.566-108.919 0-18.842-2.082-57.446-17.442-77.483 12.083-31.266 13.585-83.524-20.548-117.999 3.14-59.46-11.708-101.001-44.169-123.802 0.171-30.071-13.517-66.594-34.748-90.999-15.36-17.647-32.87-26.965-50.62-26.965zM378.334 456.977v-336.998c4.403-10.752 57.31-37.854 81.545-37.854h393.694c7.509 0 16.35 5.393 24.883 15.189 17.579 20.139 28.945 53.282 25.907 75.401-0.99 7.066 2.526 13.926 8.806 17.34 27.785 14.95 39.697 50.415 35.362 105.335-0.444 5.53 1.877 10.889 6.076 14.473 33.348 27.75 22.938 78.677 13.414 93.252-3.072 4.676-3.618 10.547-1.604 15.667 2.116 5.12 6.519 9.011 11.981 10.274 1.638 2.389 8.533 22.562 8.533 56.115 0 39.219-66.56 74.786-92.433 74.786h-207.292c-5.359 0-10.479 2.56-13.687 6.895s-4.198 9.967-2.594 15.121c27.921 92.228 22.391 174.217-15.292 225.041-29.286 39.526-77.619 52.053-106.598 27.785v-110.797c0-1.536-0.205-3.038-0.649-4.54-31.949-115.678-65.024-208.964-170.052-262.485zM307.78 13.892h-234.325c-38.912 0-70.554 31.642-70.554 70.485v439.228c0 38.912 31.642 70.519 70.554 70.519h234.325c38.912 0 70.554-31.642 70.554-70.519v-439.228c0-38.844-31.642-70.485-70.554-70.485zM73.421 560.026c-20.070 0-36.42-16.35-36.42-36.386v-439.159c0-20.070 16.35-36.386 36.42-36.386h234.325c20.070 0 36.42 16.35 36.42 36.386v439.159c0 20.070-16.35 36.386-36.42 36.386h-234.325z" />
<glyph unicode="&#xe627;" d="M899.243 171.315h-102.4c-9.387 0-17.067 7.646-17.067 17.067s7.68 17.067 17.067 17.067h102.4c9.421 0 17.067-7.646 17.067-17.067s-7.646-17.067-17.067-17.067zM967.509 307.849h-170.667c-9.387 0-17.067 7.646-17.067 17.067s7.68 17.067 17.067 17.067h170.667c9.421 0 17.067-7.646 17.067-17.067s-7.646-17.067-17.067-17.067zM967.509 444.382h-170.667c-9.387 0-17.067 7.646-17.067 17.067s7.68 17.067 17.067 17.067h170.667c9.421 0 17.067-7.646 17.067-17.067s-7.646-17.067-17.067-17.067zM802.099 34.782h-349.355c-20.207 0-41.199 2.15-57.412 17.783-5.154 5.018-10.854 11.947-16.93 19.319-9.489 11.639-25.361 31.164-34.099 31.164h-25.327c-9.387 0-17.067 7.646-17.067 17.067s7.68 17.067 17.067 17.067h25.361c24.951 0 43.895-23.245 60.553-43.691 5.052-6.281 9.796-12.083 14.165-16.35 6.212-6.007 15.326-8.226 33.655-8.226h349.355c32.119 0 57.003 11.332 73.967 33.69 19.251 25.395 23.347 60.075 17.408 81.135-2.423 8.738 2.389 17.92 11.025 20.787 21.538 7.202 32.87 29.628 37.717 42.359 11.878 31.164 10.103 65.263 1.536 80.247-4.437 7.782-2.15 17.681 5.291 22.665 22.016 14.711 27.75 41.062 26.010 59.119-1.809 18.398-10.445 32.563-23.142 37.854-7.475 3.14-11.742 11.127-10.138 19.115s8.602 13.687 16.725 13.687c8.738 0 19.627 0 19.627 40.107 0 45.193-19.285 61.235-73.728 61.235h-230.878c-5.393 0-10.479 2.526-13.687 6.861-3.209 4.301-4.233 9.899-2.697 15.053 37.922 127.898 13.585 195.686-21.845 216.439-23.518 13.824-53.965 8.909-77.517-11.981v-94.242c0-2.799 0.171-5.564 0.341-8.363 0.58-8.943 1.161-19.081-2.56-29.764-23.757-67.959-69.393-128.853-135.68-181.043-0.853-0.717-1.604-1.638-3.038-3.55l-2.901-3.721c-21.606-26.078-57.071-42.257-92.535-42.257-9.421 0-17.067 7.646-17.067 17.067s7.646 17.067 17.067 17.067c25.566 0 50.961 11.469 66.253 29.901 3.959 5.257 6.622 8.841 11.093 12.356 61.030 48.060 102.98 103.731 124.518 165.513 1.468 4.198 1.126 9.83 0.717 16.35-0.205 3.482-0.41 6.963-0.41 10.445v101.547c0 4.437 1.741 8.738 4.881 11.913 35.123 36.113 85.060 45.056 124.006 22.221 56.764-33.314 72.465-119.808 43.383-233.711h208.452c46.251 0 107.861-9.899 107.861-95.369 0-13.175 0-45.602-19.797-62.908 9.045-11.947 14.848-27.238 16.521-44.544 3.038-31.607-8.124-61.815-29.696-81.852 8.704-26.453 6.997-63.454-5.257-95.607-9.83-25.771-25.498-45.295-44.885-56.32 3.55-28.467-2.833-65.911-25.941-96.393-16.111-21.572-46.899-47.241-100.966-47.241zM301.909 68.915h-273.067c-9.387 0-17.067 7.646-17.067 17.067v409.6c0 9.421 7.68 17.067 17.067 17.067h273.067c9.421 0 17.067-7.646 17.067-17.067v-409.6c0-9.455-7.646-17.067-17.067-17.067zM45.909 103.049h238.933v375.467h-238.933v-375.467z" />
<glyph unicode="&#xe628;" d="M256-64.614h-238.933c-9.421 0-17.067 7.646-17.067 17.067v648.533c0 9.421 7.646 17.067 17.067 17.067h238.933c9.421 0 17.067-7.646 17.067-17.067v-648.533c0-9.421-7.646-17.067-17.067-17.067zM34.133-30.481h204.8v614.4h-204.8v-614.4zM144.964 692.122c-73.079 0-132.54 60.245-132.54 134.281 0 74.001 59.46 134.212 132.54 134.212s132.506-60.177 132.506-134.212c-0.034-74.035-59.46-134.281-132.506-134.281zM144.964 926.481c-54.238 0-98.406-44.885-98.406-100.079 0-55.228 44.134-100.147 98.406-100.147 54.238 0 98.372 44.919 98.372 100.147-0.034 55.194-44.169 100.079-98.372 100.079zM1006.933-64.614h-204.8c-9.387 0-17.067 7.646-17.067 17.067v360.004c0 55.467-65.365 100.147-119.467 100.147s-119.467-44.681-119.467-100.147v-360.004c0-9.421-7.68-17.067-17.067-17.067h-170.667c-9.421 0-17.067 7.646-17.067 17.067v648.533c0 9.421 7.646 17.067 17.067 17.067h170.667c9.387 0 17.067-7.646 17.067-17.067v-26.522c37.035 19.149 111.377 48.094 221.867 48.094 138.718 0 256-115.166 256-251.494v-418.611c0-9.421-7.68-17.067-17.067-17.067zM819.2-30.481h170.667v401.545c0 117.828-101.615 217.361-221.867 217.361-149.129 0-227.942-57.071-228.727-57.651-5.12-3.823-12.083-4.437-17.852-1.536-5.734 2.901-9.387 8.806-9.387 15.223v39.458h-136.533v-614.4h136.533v342.938c0 75.605 82.569 134.281 153.6 134.281s153.6-58.641 153.6-134.281l-0.034-342.938z" />
<glyph unicode="&#xe629;" d="M205.005-40.858c-3.55 0-7.031 1.126-10.035 3.311-6.007 4.335-8.499 12.049-6.246 19.115l113.459 349.013-296.96 215.723c-5.973 4.335-8.499 12.049-6.212 19.081s8.841 11.81 16.247 11.81h367.070l113.425 349.15c4.574 14.063 27.887 14.063 32.461 0l113.425-349.15h367.070c7.407 0 13.961-4.779 16.247-11.81s-0.205-14.746-6.212-19.081l-296.926-215.689 113.425-349.047c2.287-7.066-0.205-14.78-6.212-19.115-6.042-4.369-14.063-4.369-20.105 0l-296.926 215.689-296.96-215.689c-3.004-2.185-6.554-3.311-10.035-3.311zM512 216.337c3.516 0 7.031-1.058 10.035-3.243l264.499-192.171-101.001 310.852c-2.287 7.066 0.205 14.78 6.212 19.115l264.465 192.102h-326.929c-7.407 0-13.961 4.779-16.247 11.81l-101.001 310.955-101.001-310.955c-2.287-7.031-8.875-11.81-16.282-11.81h-326.929l264.499-192.137c6.007-4.335 8.499-12.083 6.246-19.081l-101.035-310.852 264.499 192.171c2.935 2.185 6.417 3.243 9.967 3.243z" />
<glyph unicode="&#xe62a;" d="M717.995-39.185c-47.923 0-95.266 12.425-137.455 36.079-25.327-4.028-48.879-6.007-71.782-6.007-254.464 0-461.517 206.985-461.517 461.483 0 24.132 2.15 48.777 6.519 75.23-19.388 38.912-29.628 82.227-29.628 125.645 0 155.477 126.464 281.941 281.941 281.941 42.974 0 84.343-9.591 123.051-28.501 27.511 4.847 53.589 7.168 79.599 7.168 254.498 0 461.483-207.019 461.483-461.517 0-23.142-2.014-46.933-6.144-72.533 23.484-41.984 35.806-89.259 35.806-137.079 0.068-155.443-126.464-281.907-281.873-281.907zM587.059 32.529l5.393-3.174c38.229-22.528 81.681-34.441 125.542-34.441 136.602 0 247.808 111.172 247.808 247.808 0 43.827-11.878 87.142-34.27 125.235l-3.14 5.393 1.024 6.178c4.506 26.010 6.69 49.801 6.69 72.772 0 235.657-191.727 427.383-427.383 427.383-25.668 0-51.507-2.492-79.019-7.612l-5.7-1.058-5.188 2.662c-35.396 18.159-73.284 27.341-112.742 27.341-136.636 0-247.808-111.172-247.808-247.808 0-40.448 9.557-79.121 28.399-114.995l2.697-5.154-1.024-5.734c-4.71-26.624-6.997-51.166-6.997-74.991 0-235.622 191.727-427.383 427.383-427.383 22.767 0 46.387 2.15 72.192 6.519l6.144 1.058zM506.88 143.667c-124.928 0-219.307 58.197-240.435 148.241-4.813 20.514-1.331 41.643 9.762 59.529s28.467 30.379 49.015 35.157c41.643 9.865 84.89-16.998 94.618-58.778 1.707-7.305 31.095-26.624 87.040-26.624 46.592 0 76.254 25.941 78.097 34.85-0.034 9.079-0.034 19.934-92.262 38.878-69.837 14.336-233.438 47.957-221.252 207.462 8.909 116.907 138.581 171.383 223.369 171.383 69.393 0 163.465-26.829 219.238-102.161 12.595-16.896 17.783-37.649 14.711-58.47s-14.097-39.185-30.993-51.712c-33.553-24.986-85.299-17.271-110.217 16.316-19.524 26.385-61.815 38.4-92.706 38.4-31.198 0-63.522-19.183-66.458-26.692-0.546-8.499-1.434-20.139 96.017-40.175 76.356-15.735 218.112-44.954 218.112-193.775-0.068-103.936-107.998-191.829-235.657-191.829zM343.245 354.611c-3.447 0-6.895-0.444-10.274-1.195-11.639-2.731-21.504-9.796-27.785-19.934s-8.226-22.153-5.53-33.758c17.374-74.035 98.714-121.856 207.189-121.856 109.227 0 201.489 72.26 201.489 157.798 0 120.969-114.688 144.623-190.601 160.256-89.737 18.432-126.601 33.212-123.221 77.141 2.56 33.28 61.713 57.344 100.318 57.344 37.581 0 91.58-13.687 120.183-52.224 14.199-19.217 43.213-23.552 62.396-9.25 9.591 7.1 15.872 17.51 17.613 29.286s-1.195 23.552-8.26 33.109c-48.333 65.161-130.799 88.371-191.932 88.371-72.055 0-182.067-44.442-189.338-139.844-9.899-129.502 122.812-156.74 194.116-171.383 101.444-20.787 119.467-37.137 119.467-72.806 0-31.061-50.074-68.471-112.196-68.471-63.488 0-112.947 21.777-120.252 52.941-4.779 20.275-22.63 34.475-43.383 34.475z" />
<glyph unicode="&#xe62b;" d="M608.119-36.011c-80.213 0-288.358 45.67-288.358 253.952v270.336h-85.333c-9.421 0-17.067 7.646-17.067 17.067v154.487c0 7.919 5.461 14.814 13.175 16.623 63.42 14.848 186.914 112.469 186.914 238.49 0 9.421 7.646 17.067 17.067 17.067h141.278c9.387 0 17.067-7.646 17.067-17.067v-221.867h153.6c9.387 0 17.067-7.646 17.067-17.067v-170.667c0-9.421-7.68-17.067-17.067-17.067h-153.6v-252.279c0.717-5.018 10.581-67.516 78.541-67.516 19.081 0 41.267 4.881 66.082 14.404 4.301 1.673 9.148 1.536 13.346-0.444s7.407-5.495 8.943-9.865c3.994-11.537 12.254-36.42 21.197-63.249 8.841-26.487 18.261-54.852 24.781-73.796 2.355-6.929 0.068-14.609-5.734-19.081-68.267-52.463-161.28-52.463-191.898-52.463zM251.529 522.411h85.333c9.421 0 17.067-7.646 17.067-17.067v-287.369c0-217.327 251.699-219.819 254.225-219.819 26.214 0 103.014 0 161.143 38.468-6.076 17.886-13.585 40.55-20.753 62.020-5.769 17.34-11.298 33.929-15.531 46.49-22.221-7.134-42.974-10.718-61.645-10.718-79.804 0-108.544 65.195-112.538 99.635l-0.068 271.326c0 9.421 7.612 17.067 17.067 17.067h153.6v136.533h-153.6c-9.455 0-17.067 7.646-17.067 17.067v221.867h-107.759c-9.626-128.956-126.191-225.963-199.475-250.88v-124.621z" />
<glyph unicode="&#xe62c;" d="M348.126 49.63c-103.799 0-209.374 29.764-313.856 88.474-7.1 3.959-10.377 12.356-7.851 20.139s9.933 12.698 18.193 11.674c81.647-9.353 172.612 11.469 236.919 52.531-75.844 14.507-137.353 61.85-169.097 131.994-2.765 6.11-1.707 13.312 2.731 18.295s11.366 6.997 17.783 5.052c16.316-4.983 32.836-7.339 47.991-6.997-57.549 29.116-128.717 94.276-128.717 194.697 0 6.588 3.789 12.595 9.762 15.428s13.005 1.98 18.091-2.185c11.537-9.387 24.371-16.35 37.683-20.514-19.456 22.665-37.035 53.077-46.251 88.508-13.926 53.623-5.871 107.93 23.279 157.013 2.867 4.847 7.885 7.919 13.517 8.329 5.359 0.375 11.025-1.98 14.541-6.383 63.966-79.804 177.971-176.435 361.813-192.58-4.642 54.955 10.581 150.426 89.702 196.642 94.686 55.364 187.358 47.821 265.694-21.709 36.147 7.475 93.969 32.666 106.257 41.301 5.871 4.096 13.687 4.13 19.558 0 5.871-4.096 8.567-11.435 6.724-18.364-6.178-23.142-21.367-49.289-39.697-71.1 17.545 4.676 33.348 9.899 40.585 13.653 6.827 3.55 15.189 2.048 20.446-3.652 5.154-5.666 5.939-14.131 1.843-20.617-25.429-40.175-66.867-77.517-93.594-96.905 11.605-132.642-41.95-279.074-144.418-393.967-108.715-121.719-254.054-188.757-409.429-188.757h-0.205zM117.214 134.724c77.38-33.86 154.795-50.995 230.912-50.995 0.034 0 0.034 0 0.068 0 145.51 0 281.873 63.010 384 177.357 98.816 110.626 149.265 251.767 134.997 377.549-0.717 6.383 2.15 12.629 7.578 16.179 13.824 9.148 36.489 27.443 57.651 49.63-21.743-5.393-44.51-9.455-59.87-9.523-0.034 0-0.034 0-0.034 0-8.192 0-15.189 5.803-16.725 13.824-1.604 8.021 2.799 16.077 10.445 19.115 15.155 6.007 36.762 26.863 52.975 50.483-27.136-11.264-59.529-22.255-82.125-25.498-5.052-0.683-10.308 0.922-14.063 4.471-68.813 64.649-147.285 72.055-231.526 22.938-76.561-44.749-78.268-148.787-70.246-181.623 1.297-5.257 0-10.786-3.447-14.95s-8.704-6.519-14.063-6.144c-193.229 10.206-317.338 103.049-390.827 186.778-18.603-43.315-15.292-82.364-8.397-109.022 12.868-49.527 45.363-87.586 70.144-101.99 6.144-3.55 9.421-10.547 8.26-17.545s-6.519-12.561-13.483-13.926c-26.214-5.257-54.443-1.126-79.906 10.854 19.012-96.734 118.784-142.131 146.261-145.135 6.793-0.717 12.459-5.461 14.438-12.015 2.014-6.519-0.068-13.585-5.291-17.988-19.319-16.35-49.527-23.484-84.070-20.070 36.147-53.282 94.857-83.968 165.717-85.538 6.997-0.171 13.21-4.574 15.633-11.127 2.423-6.519 0.614-13.961-4.608-18.637-54.135-48.572-136.397-80.759-220.399-87.45z" />
<glyph unicode="&#xe62d;" d="M458.82 6.076c-0.171 0-0.341 0-0.58 0-114.108 3.55-160.017 189.269-200.499 353.143-16.521 67.004-32.154 130.287-50.62 174.421l-2.185 5.325c-12.288 29.73-22.357 50.79-40.175 50.79-10.342 0-29.628-6.349-62.601-36.625-3.413-3.14-7.953-4.847-12.595-4.437-4.642 0.273-8.943 2.458-11.947 5.973-24.542 28.843-48.367 64.751-49.357 66.287-4.164 6.246-3.686 14.507 1.126 20.309 64.478 77.517 212.446 224.085 310.716 224.085 115.541-10.752 140.117-174.729 161.86-319.351 12.834-85.47 26.078-173.534 55.262-200.465 43.383 44.817 95.266 115.507 113.050 155.068 10.377 23.040 14.643 73.148-2.219 99.191-13.722 21.231-40.755 23.586-79.77 8.636-5.769-2.219-12.39-1.126-17.169 2.935s-6.929 10.377-5.632 16.486c37.513 180.087 160.734 262.11 259.379 262.11 37.922 0 73.489-11.81 102.844-34.133 118.75-90.317 72.124-293.137-21.402-443.426-108.749-174.421-273.34-406.323-447.488-406.323zM164.796 623.855c41.95 0 59.153-41.54 71.714-71.817l2.15-5.222c19.456-46.558 35.396-111.070 52.292-179.337 35.669-144.418 80.111-324.13 168.175-327.202 175.275 0.273 358.025 293.751 418.133 390.281 88.337 141.926 126.942 324.267 29.73 398.199-23.381 17.783-51.814 27.17-82.159 27.17-82.398 0-180.497-70.827-218.999-206.575 41.028 8.602 72.533-2.526 90.897-30.925 24.61-38.025 18.569-100.932 4.745-131.686-20.855-46.455-81.613-128.341-129.946-175.172-4.983-4.847-12.356-6.178-18.705-3.379-53.043 23.074-67.618 120.218-84.582 232.755-19.866 132.267-42.359 282.214-129.707 290.372-74.206-0.034-204.049-120.013-274.534-202.001 6.656-9.626 17.271-24.542 28.774-39.117 27.477 22.596 51.166 33.655 72.021 33.655z" />
<glyph unicode="&#xe62e;" d="M512 103.492c-93.15 0-188.143 3.447-327.782 11.981-72.226 4.403-139.401 67.823-146.739 138.615-15.94 155.648-15.906 231.595 0.068 387.072 7.305 70.724 74.479 134.178 146.671 138.615 279.245 16.964 376.252 16.964 655.531 0 72.192-4.437 139.332-67.891 146.671-138.615 16.043-155.853 16.077-231.834 0.137-387.14-7.339-70.69-74.547-134.246-146.807-138.65-139.605-8.363-234.598-11.878-327.748-11.878zM512 757.623c-92.433 0-186.778-3.482-325.7-11.913-55.569-3.413-109.227-53.897-114.79-108.032-15.701-152.678-15.735-227.294-0.034-380.109 5.598-54.17 59.255-104.619 114.859-108.032 277.777-16.93 373.521-16.93 651.366 0 55.603 3.413 109.295 53.862 114.893 108.032 15.633 152.474 15.633 227.123-0.102 380.143-5.598 54.135-59.255 104.619-114.825 108.032-138.854 8.397-233.199 11.878-325.666 11.878zM418.509 335.121c-3.277 0-6.519 0.922-9.318 2.765-4.813 3.174-7.748 8.533-7.748 14.302v229.001c0 5.769 2.901 11.127 7.748 14.302 4.847 3.14 10.923 3.618 16.213 1.331l260.779-114.483c6.246-2.697 10.24-8.841 10.24-15.633s-3.994-12.902-10.24-15.633l-260.779-114.517c-2.219-0.956-4.574-1.434-6.895-1.434zM435.575 555.042v-176.742l201.284 88.371-201.284 88.371z" />
<glyph unicode="&#xe62f;" d="M709.769-6.349c-26.556 0-55.637 2.082-86.426 4.198-71.27 4.983-151.347 5.018-222.618 0-30.788-2.15-59.87-4.198-86.426-4.198-36.454 0-82.466 3.379-115.029 29.286-30.686 24.508-45.636 65.399-45.636 125.030 0 189.338 153.259 401.067 358.4 401.067s358.4-211.729 358.4-401.067c0-135.578-77.244-154.317-160.666-154.317zM512.034 37.069c40.004 0 77.483-2.628 113.698-5.12 30.174-2.15 58.675-4.13 84.036-4.13 82.022 0 126.532 19.217 126.532 120.183 0 173.193-138.684 366.933-324.267 366.933s-324.267-193.741-324.267-366.933c0-48.572 10.718-80.759 32.768-98.338 18.944-15.053 47.855-21.879 93.764-21.879 25.361 0 53.897 2.014 84.070 4.13 36.147 2.526 73.626 5.154 113.664 5.154zM176.742 431.787c-48.913 0-99.908 34.236-126.908 85.197-19.661 37.103-23.996 77.551-11.913 110.967 9.079 25.054 27.034 44.169 50.517 53.794 11.366 4.71 23.723 7.066 36.625 7.066 48.879 0 99.874-34.27 126.874-85.265 19.661-37.103 23.996-77.551 11.913-110.933-9.045-25.020-26.999-44.134-50.483-53.794-11.435-4.642-23.723-7.031-36.625-7.031zM125.065 654.711c-8.431 0-16.384-1.502-23.62-4.506-14.746-6.042-25.6-17.749-31.403-33.826-8.67-24.030-4.983-55.194 9.967-83.388 25.839-48.708 82.159-78.234 120.388-62.566 14.711 6.042 25.566 17.749 31.369 33.826 8.67 23.996 4.983 55.159-9.967 83.354-20.924 39.492-60.689 67.106-96.734 67.106zM414.857 564.395c-57.276 0-108.271 61.952-121.276 147.354-14.268 93.525 22.562 176.538 83.866 188.996 61.167 12.493 122.505-52.668 136.67-145.749 14.268-93.525-22.562-176.538-83.9-189.065-5.12-1.024-10.24-1.536-15.36-1.536zM392.875 868.181c-2.867 0-5.769-0.307-8.636-0.853-41.984-8.533-68.062-77.414-56.934-150.391 10.854-71.202 53.965-125.986 96.119-117.487 41.984 8.533 68.096 77.449 56.934 150.426-10.103 66.321-48.503 118.306-87.484 118.306zM847.326 431.821v0c-12.868 0-25.225 2.389-36.625 7.066-23.484 9.626-41.438 28.706-50.483 53.726-12.083 33.382-7.782 73.83 11.878 110.967 26.999 50.995 77.995 85.265 126.908 85.265 12.902 0 25.225-2.355 36.625-7.066 23.484-9.626 41.438-28.774 50.483-53.794 12.083-33.417 7.782-73.865-11.947-110.967-26.931-50.961-77.892-85.197-126.839-85.197zM898.97 654.711c-36.045 0-75.776-27.614-96.7-67.106-14.95-28.228-18.671-59.392-9.967-83.354 5.803-16.077 16.623-27.75 31.334-33.758 38.366-15.77 94.583 13.79 120.354 62.532 14.95 28.194 18.671 59.358 10.001 83.354-5.871 16.111-16.725 27.819-31.437 33.86-7.236 2.935-15.155 4.471-23.586 4.471zM651.913 564.395c-0.034 0-0.034 0 0 0-5.086 0-10.274 0.512-15.394 1.536-61.338 12.493-98.167 95.539-83.9 189.065 14.165 93.082 75.537 158.345 136.738 145.749 61.269-12.425 98.065-95.471 83.866-188.996-13.073-85.367-64.137-147.354-121.31-147.354zM673.792 868.181c-38.946 0-77.38-51.951-87.484-118.306-11.162-73.011 14.95-141.892 56.934-150.46 42.121-8.602 85.265 46.285 96.119 117.487 11.127 72.977-14.95 141.858-56.934 150.391-2.833 0.58-5.7 0.887-8.636 0.887z" />
<glyph unicode="&#xe630;" d="M699.733 55.467h-204.8c-9.421 0-17.067 7.646-17.067 17.067v204.8c0 9.387 7.646 17.067 17.067 17.067h85.845l-39.219 103.799c-2.731 7.134-0.375 15.121 5.734 19.729 6.076 4.574 14.404 4.54 20.48-0.068l142.268-107.725c4.267-3.277 6.724-8.26 6.724-13.585v-224.017c0.034-9.421-7.646-17.067-17.033-17.067zM512 89.6h170.667v198.417l-88.269 66.833 26.999-71.543c2.014-5.222 1.263-11.127-1.946-15.735s-8.431-7.407-14.029-7.407h-93.423v-170.564zM1006.933 55.467h-204.8c-9.421 0-17.067 7.646-17.067 17.067v204.8c0 9.387 7.646 17.067 17.067 17.067h78.063l-35.908 104.311c-2.423 7.066 0 14.916 6.042 19.285 6.007 4.471 14.199 4.471 20.207 0l146.534-107.691c4.335-3.243 6.929-8.329 6.929-13.79v-223.983c0-9.421-7.68-17.067-17.067-17.067zM819.2 89.6h170.667v198.315l-95.471 70.246 25.873-75.264c1.843-5.188 0.99-10.957-2.185-15.462-3.209-4.506-8.431-7.168-13.892-7.168h-84.992v-170.667zM474.658 488.516c-3.823 0-7.612 1.263-10.718 3.789l-150.391 121.617c-3.994 3.277-6.349 8.124-6.349 13.278v196.267c0 9.421 7.646 17.067 17.067 17.067h204.8c9.387 0 17.067-7.646 17.067-17.067v-204.8c0-9.421-7.68-17.067-17.067-17.067h-70.144l31.846-90.317c2.526-7.202 0-15.189-6.246-19.593-3.004-2.15-6.451-3.174-9.865-3.174zM341.333 635.324l97.212-78.575-19.831 56.252c-1.843 5.188-1.024 10.991 2.15 15.531 3.174 4.506 8.397 7.202 13.892 7.202h77.175v170.667h-170.667l0.068-171.076zM171.725 488.516c-3.721 0-7.475 1.229-10.547 3.652l-154.692 121.617c-4.096 3.277-6.485 8.226-6.485 13.414v196.267c0 9.421 7.646 17.067 17.067 17.067h238.933c9.387 0 17.067-7.646 17.067-17.067v-204.8c0-9.421-7.646-17.067-17.067-17.067h-96.597l28.604-90.863c2.253-7.134-0.41-14.916-6.588-19.183-2.935-2.048-6.349-3.038-9.694-3.038zM34.133 635.494l104.755-82.364-19.012 60.416c-1.673 5.188-0.717 10.82 2.492 15.189s8.363 6.997 13.756 6.997h102.81v170.667h-204.8v-170.906z" />
<glyph unicode="&#xe631;" d="M187.733 482.441c-1.399 0-2.799 0.171-4.164 0.512-112.094 28.194-183.569 143.633-183.569 194.628v33.007c0 70.281 62.498 129.638 136.499 129.638 74.103 0 139.127-60.553 139.127-129.638 0-26.044 0-92.297-70.793-101.342v-109.739c0-5.257-2.423-10.24-6.554-13.483-3.072-2.355-6.793-3.584-10.547-3.584zM136.499 806.127c-54.511 0-102.366-44.646-102.366-95.505v-33.007c0-33.451 52.361-122.368 136.533-154.795v102.468c0 9.421 7.646 17.067 17.067 17.067 45.431 0 53.726 23.006 53.726 68.267 0 49.971-50.039 95.505-104.96 95.505zM494.933 482.441c-1.058 0-2.116 0.102-3.174 0.307-151.415 28.535-184.559 150.289-184.559 194.833v32.973c0 69.052 65.741 129.638 140.732 129.638 67.652 0 143.36-55.433 143.36-129.638 0-58.778-28.638-94.891-79.258-101.342v-109.739c0-5.086-2.253-9.899-6.178-13.141-3.106-2.526-6.963-3.891-10.923-3.891zM447.932 806.127c-55.774 0-106.598-45.5-106.598-95.505v-33.007c0-34.645 25.156-126.259 136.533-156.672v104.346c0 9.421 7.646 17.067 17.067 17.067 15.394 0 62.191 0 62.191 68.267 0 53.76-58.709 95.505-109.193 95.505zM889.617 55.774c-74.308 0-137.045 59.358-137.045 129.638 0 35.294 28.604 87.006 66.628 99.533v111.514c0 5.086 2.253 9.933 6.212 13.141 3.891 3.277 9.045 4.608 14.029 3.618 151.415-28.501 184.559-150.289 184.559-194.867v-32.973c0-70.246-61.577-129.604-134.383-129.604zM853.333 375.057v-104.414c0-9.387-7.68-17.067-17.067-17.067-22.494 0-49.562-41.882-49.562-68.198 0-50.893 48.060-95.505 102.912-95.505 54.374 0 100.284 43.691 100.284 95.505v32.973c-0.034 34.645-25.19 126.327-136.567 156.706zM578.15 55.774c-75.264 0-141.278 60.553-141.278 129.638 0 36.898 36.284 87.347 75.127 99.567v111.479c0 5.086 2.253 9.933 6.178 13.141 3.925 3.277 9.079 4.608 14.063 3.618 151.415-28.501 184.559-150.289 184.559-194.867v-32.973c0-68.983-64.785-129.604-138.65-129.604zM546.133 375.057v-104.414c0-9.387-7.68-17.067-17.067-17.067-22.801 0-58.061-41.438-58.061-68.198 0-54.682 56.559-95.505 107.145-95.505 55.671 0 104.55 44.646 104.55 95.505v32.973c-0.034 34.645-25.19 126.327-136.567 156.706z" />
<glyph unicode="&#xe632;" d="M417.724-32.017c-204.459 0-370.79 166.332-370.79 370.756 0 204.459 166.332 370.756 370.79 370.756 204.493 0 370.825-166.332 370.825-370.756 0-204.356-166.332-370.756-370.825-370.756zM417.724 675.499c-185.617 0-336.657-151.006-336.657-336.657 0-185.617 151.006-336.623 336.657-336.623s336.691 151.040 336.691 336.623-151.040 336.657-336.691 336.657zM417.724 279.074c-32.905 0-59.699 26.795-59.699 59.733s26.795 59.733 59.699 59.733c32.939 0 59.767-26.795 59.767-59.733s-26.829-59.733-59.767-59.733zM417.724 364.407c-14.097 0-25.566-11.469-25.566-25.6s11.469-25.6 25.566-25.6c14.131 0 25.634 11.469 25.634 25.6s-11.503 25.6-25.634 25.6zM269.175 650.991c-9.421 0-17.067 7.646-17.067 17.067v225.792h-68.267c-9.421 0-17.067 7.646-17.067 17.067s7.646 17.067 17.067 17.067h85.333c9.421 0 17.067-7.646 17.067-17.067v-242.859c0-9.387-7.646-17.067-17.067-17.067zM960 74.65h-106.667c-9.387 0-17.067 7.68-17.067 17.067v324.267h-77.517c-9.353 0-17.067 7.68-17.067 17.067 0 9.421 7.714 17.067 17.067 17.067h94.583c9.387 0 17.067-7.646 17.067-17.067v-324.267h89.6c9.387 0 17.067-7.714 17.067-17.067 0-9.387-7.68-17.067-17.067-17.067zM678.81 569.583c-9.455 0-17.067 7.646-17.067 17.067v170.667h-375.467c-9.421 0-17.067 7.646-17.067 17.067s7.646 17.067 17.067 17.067h392.533c9.387 0 17.067-7.646 17.067-17.067v-187.733c0-9.387-7.68-17.067-17.067-17.067z" />
<glyph unicode="&#xe633;" d="M852.48 287.983h-469.333c-7.1 0-13.414 4.369-15.94 10.957l-178.347 466.91h-114.005v-34.133c0-9.421-7.646-17.067-17.067-17.067-9.387 0-17.067 7.646-17.067 17.067v51.2c0 9.421 7.68 17.067 17.067 17.067h142.848c7.1 0 13.414-4.369 15.94-10.991l178.313-466.876h445.747l102.332 276.309-604.092 88.678c-9.318 1.365-15.77 10.035-14.404 19.354s9.933 15.77 19.319 14.404l624.913-91.75c5.052-0.751 9.523-3.755 12.151-8.192 2.628-4.403 3.106-9.796 1.331-14.643l-113.766-307.2c-2.458-6.69-8.806-11.093-15.94-11.093zM494.49 234.394c28.809 0 52.156-23.381 52.156-52.122 0-28.877-23.381-52.122-52.156-52.122s-52.122 23.347-52.122 52.122c0.034 28.774 23.381 52.122 52.122 52.122zM494.49 268.527c-47.582 0-86.255-38.673-86.255-86.255s38.707-86.255 86.255-86.255c47.616 0 86.289 38.741 86.289 86.255 0.034 47.548-38.673 86.255-86.289 86.255v0zM741.069 234.394c28.809 0 52.122-23.381 52.122-52.122 0-28.877-23.347-52.122-52.122-52.122-28.843 0-52.156 23.347-52.156 52.122s23.313 52.122 52.156 52.122zM741.069 268.527c-47.616 0-86.289-38.673-86.289-86.255s38.707-86.255 86.289-86.255c47.582 0 86.255 38.741 86.255 86.255-0.034 47.548-38.707 86.255-86.255 86.255v0zM825.788 390.383h-409.6c-9.387 0-17.067 7.646-17.067 17.067s7.68 17.067 17.067 17.067h409.6c9.421 0 17.067-7.646 17.067-17.067s-7.612-17.067-17.067-17.067zM825.788 458.65h-409.6c-9.387 0-17.067 7.646-17.067 17.067s7.68 17.067 17.067 17.067h409.6c9.421 0 17.067-7.646 17.067-17.067s-7.612-17.067-17.067-17.067zM723.388 526.916h-307.2c-9.387 0-17.067 7.646-17.067 17.067s7.68 17.067 17.067 17.067h307.2c9.421 0 17.067-7.646 17.067-17.067s-7.612-17.067-17.067-17.067z" />
<glyph unicode="&#xe634;" d="M938.667-64h-819.2c-9.421 0-17.067 7.68-17.067 17.067v597.333h34.133v-580.267h785.067v580.267h34.133v-597.333c0-9.387-7.68-17.067-17.067-17.067zM699.733-46.933c-9.387 0-17.067 7.68-17.067 17.067v341.333h-341.333v-341.333c0-9.387-7.646-17.067-17.067-17.067s-17.067 7.68-17.067 17.067v358.4c0 9.387 7.646 17.067 17.067 17.067h375.467c9.387 0 17.067-7.68 17.067-17.067v-358.4c0-9.387-7.68-17.067-17.067-17.067zM934.195 520.533c-32.734 0-59.358 16.145-74.889 42.735-18.603-25.839-48.981-42.735-83.183-42.735-35.567 0-67.004 18.261-85.367 45.875-18.364-27.614-49.766-45.875-85.367-45.875s-67.072 18.261-85.436 45.875c-18.398-27.648-49.835-45.875-85.504-45.875-35.772 0-67.345 18.295-85.777 46.012-18.5-27.716-50.176-46.012-86.050-46.012-36.523 0-68.745 18.671-87.279 46.831-19.081-27.955-51.78-46.831-88.064-46.831-46.49 0-87.279 47.855-87.279 102.4v21.333c0 2.15 0.41 4.267 1.195 6.281l117.76 298.667c2.594 6.519 8.875 10.786 15.872 10.786h769.331c7.27 0 13.756-4.642 16.145-11.503l102.775-298.667c0.614-1.775 0.922-3.652 0.922-5.564v-21.333c0-61.235-36.079-102.4-89.805-102.4zM878.524 622.933c0-33.007 14.609-68.267 55.671-68.267s55.671 35.26 55.671 68.267v18.466l-97.894 284.433h-745.54l-112.299-284.843v-18.091c0-39.049 28.058-68.267 53.146-68.267 38.707 0 71.373 31.266 71.373 68.267 0 9.421 7.646 17.067 17.067 17.067s17.067-7.646 17.067-17.067c0-37.001 31.983-68.267 69.803-68.267 38.059 0 69.018 30.618 69.018 68.267 0 9.421 7.646 17.067 17.067 17.067s17.067-7.646 17.067-17.067c0-37.649 30.788-68.267 68.676-68.267 37.751 0 68.471 30.618 68.471 68.267 0 9.421 7.646 17.067 17.067 17.067s17.067-7.646 17.067-17.067c0-37.649 30.652-68.267 68.335-68.267s68.335 30.618 68.335 68.267c0 9.421 7.646 17.067 17.067 17.067 9.387 0 17.067-7.646 17.067-17.067 0-37.649 30.583-68.267 68.267-68.267s68.267 30.618 68.267 68.267c0 9.421 7.68 17.067 17.067 17.067 9.421 0 17.101-7.612 17.101-17.033z" />
<glyph unicode="&#xe635;" d="M1002.667-64h-981.333c-5.461 0-10.65 2.628-13.824 7.1-3.209 4.403-4.096 10.103-2.355 15.326l213.333 648.533c2.253 6.997 8.841 11.742 16.213 11.742h554.667c7.373 0 13.926-4.745 16.213-11.742l213.333-648.533c1.741-5.154 0.819-10.889-2.355-15.326-3.277-4.471-8.431-7.1-13.892-7.1zM44.919-29.867h934.127l-202.103 614.4h-529.92l-202.103-614.4zM691.575 465.067c-9.387 0-17.067 7.646-17.067 17.067v311.467c0 81.579-54.101 132.267-141.175 132.267h-42.667c-75.844 0-157.491-41.37-157.491-132.267v-311.467c0-9.421-7.646-17.067-17.067-17.067-9.387 0-17.067 7.646-17.067 17.067v311.467c0 96.427 80.589 166.4 191.625 166.4h42.667c106.496 0 175.309-65.297 175.309-166.4v-311.467c0-9.421-7.646-17.067-17.067-17.067z" />
<glyph unicode="&#xe636;" d="M852.48 287.983h-469.333c-7.1 0-13.414 4.369-15.94 10.957l-178.347 466.91h-114.005v-34.133c0-9.421-7.646-17.067-17.067-17.067-9.387 0-17.067 7.646-17.067 17.067v51.2c0 9.421 7.68 17.067 17.067 17.067h142.848c7.1 0 13.414-4.369 15.94-10.991l178.313-466.876h445.747l102.332 276.309-604.092 88.678c-9.318 1.365-15.77 10.035-14.404 19.354s9.796 15.77 19.319 14.404l624.913-91.75c5.052-0.751 9.523-3.755 12.151-8.192 2.628-4.403 3.106-9.796 1.331-14.643l-113.766-307.2c-2.458-6.69-8.806-11.093-15.94-11.093zM494.49 234.394c28.809 0 52.156-23.381 52.156-52.122 0-28.877-23.381-52.122-52.156-52.122s-52.122 23.347-52.122 52.122c0.034 28.774 23.381 52.122 52.122 52.122zM494.49 268.527c-47.582 0-86.255-38.673-86.255-86.255s38.707-86.255 86.255-86.255c47.616 0 86.289 38.741 86.289 86.255 0.034 47.548-38.673 86.255-86.289 86.255v0zM741.069 234.394c28.809 0 52.122-23.381 52.122-52.122 0-28.877-23.347-52.122-52.122-52.122-28.843 0-52.156 23.347-52.156 52.122s23.313 52.122 52.156 52.122zM741.069 268.527c-47.616 0-86.289-38.673-86.289-86.255s38.707-86.255 86.289-86.255c47.582 0 86.255 38.741 86.255 86.255-0.034 47.548-38.707 86.255-86.255 86.255v0z" />
<glyph unicode="&#xe637;" d="M83.661 728.269c0 31.369 12.254 60.826 34.406 82.978 44.373 44.339 121.617 44.339 165.99 0 6.656-6.656 17.476-6.656 24.132 0s6.656 17.476 0 24.132c-28.638 28.638-66.697 44.373-107.145 44.373-40.482 0-78.507-15.77-107.11-44.373-28.638-28.604-44.407-66.662-44.407-107.11s15.804-78.507 44.373-107.11c3.345-3.311 7.714-4.983 12.083-4.983s8.738 1.673 12.049 4.983c6.656 6.656 6.656 17.476 0 24.132-22.118 22.153-34.372 51.61-34.372 82.978zM512.034 815.275c-207.087 0-375.569-168.516-375.569-375.569 0-130.56 67.106-245.692 168.55-313.003-0.068-0.171-0.239-0.239-0.307-0.41l-42.667-85.333c-4.198-8.397-0.785-18.705 7.646-22.869 2.492-1.229 5.086-1.843 7.646-1.843 6.281 0 12.254 3.447 15.258 9.489l41.643 83.285c52.975-28.57 113.527-44.851 177.801-44.851 64.239 0 124.723 16.282 177.698 44.817l41.677-83.354c3.004-5.939 9.011-9.387 15.292-9.387 2.526 0 5.154 0.58 7.646 1.741 8.397 4.267 11.878 14.473 7.646 22.938l-42.667 85.333c-0.068 0.171-0.239 0.239-0.307 0.41 101.478 67.311 168.585 182.409 168.585 313.037 0 207.053-168.55 375.569-375.569 375.569zM512.034 98.338c-188.314 0-341.436 153.156-341.436 341.402s153.122 341.436 341.436 341.436c188.245 0 341.436-153.19 341.436-341.436s-153.122-341.402-341.436-341.402zM930.099 835.379c-28.604 28.604-66.594 44.373-107.11 44.373s-78.541-15.77-107.145-44.373c-6.656-6.656-6.656-17.476 0-24.132 6.622-6.656 17.476-6.656 24.132 0 44.339 44.305 121.617 44.373 165.956-0.034 22.153-22.153 34.372-51.61 34.372-82.944s-12.254-60.826-34.372-82.978c-6.622-6.656-6.622-17.476 0-24.132 3.379-3.311 7.714-4.983 12.083-4.983 4.335 0 8.67 1.673 12.049 4.983 28.638 28.604 44.407 66.628 44.407 107.11s-15.77 78.507-44.373 107.11zM649.25 600.030l-107.042-106.667c-4.13 2.321-8.499 4.164-13.141 5.53v229.888c0 9.421-7.68 17.067-17.067 17.067-9.421 0-17.067-7.646-17.067-17.067v-229.888c-25.805-7.475-44.817-31.027-44.817-59.187 0-34.133 27.75-61.884 61.884-61.884 34.099 0 61.85 27.785 61.884 61.884 0 10.684-2.97 20.617-7.782 29.355l107.247 106.837c6.656 6.69 6.656 17.476 0 24.132-6.588 6.656-17.408 6.656-24.098 0zM512.034 411.921c-15.292 0-27.75 12.527-27.75 27.785 0 15.292 12.459 27.75 27.75 27.75 6.554 0 12.356-2.628 17.101-6.451 0.649-0.956 1.058-2.048 1.946-2.901 0.717-0.717 1.707-1.092 2.526-1.673 3.652-4.71 6.212-10.342 6.212-16.725-0.034-15.292-12.527-27.785-27.785-27.785z" />
<glyph unicode="&#xe638;" d="M512-59.733c-235.281 0-426.667 189.508-426.667 422.4v448c0 4.71 1.946 9.216 5.359 12.425 3.447 3.243 8.021 4.983 12.732 4.608 181.658-10.923 291.294 23.040 396.8 123.324 6.588 6.281 16.93 6.281 23.484 0 91.238-86.767 160.051-135.543 396.902-123.324 4.676 0.307 9.25-1.434 12.663-4.676 3.413-3.209 5.325-7.68 5.325-12.356v-448c0.068-232.892-191.283-422.4-426.598-422.4zM119.467 792.678v-430.012c0-214.050 176.094-388.267 392.533-388.267s392.533 174.217 392.533 388.267v430.148c-227.191-9.182-305.084 40.926-392.602 122.505-105.916-95.676-217.088-130.321-392.465-122.641zM477.867 409.6h-307.2c-9.421 0-17.067 7.68-17.067 17.067v297.097c0 9.284 7.407 16.862 16.691 17.067 156.331 3.447 260.267 36.796 292.727 93.935 3.857 6.724 11.708 10.035 19.217 8.055s12.732-8.738 12.732-16.486v-399.667c-0.034-9.387-7.68-17.067-17.101-17.067zM187.733 443.733h273.067v336.589c-51.78-43.52-144.589-68.54-273.067-73.182v-263.407zM512 39.492c-4.198 0-8.26 1.57-11.401 4.403-3.584 3.243-5.666 7.817-5.666 12.663v267.708c0 9.387 7.646 17.067 17.067 17.067h308.053c4.949 0 9.591-2.15 12.834-5.803s4.779-8.602 4.096-13.483c-19.866-150.665-149.743-264.158-323.209-282.419-0.546-0.102-1.126-0.137-1.775-0.137zM529.067 307.2v-231.185c140.527 21.265 245.999 111.479 270.848 231.185h-270.848z" />
<glyph unicode="&#xe639;" d="M512-45.534c-207.019 0-375.467 168.482-375.467 375.467 0 207.019 168.448 375.467 375.467 375.467 206.985 0 375.467-168.448 375.467-375.467 0-206.985-168.482-375.467-375.467-375.467zM512 671.266c-188.211 0-341.333-153.122-341.333-341.333s153.122-341.333 341.333-341.333 341.333 153.122 341.333 341.333c0 188.211-153.122 341.333-341.333 341.333zM836.267 483.533c-9.387 0-17.067 7.646-17.067 17.067v102.4c0 167.834-137.83 304.401-307.2 304.401s-307.2-139.059-307.2-310.033v-96.768c0-9.421-7.646-17.067-17.067-17.067s-17.067 7.646-17.067 17.067v96.768c0 189.815 153.122 344.166 341.333 344.166s341.333-151.859 341.333-338.534v-102.4c0-9.421-7.68-17.067-17.067-17.067zM529.067 125.133h-34.133c-28.228 0-51.2 22.972-51.2 51.2v77.653c-21.811 19.49-34.133 46.729-34.133 75.947 0 56.457 45.943 102.4 102.4 102.4s102.4-45.943 102.4-102.4c0-29.184-12.322-56.388-34.133-75.947v-77.653c0-28.228-22.972-51.2-51.2-51.2zM512 398.199c-37.649 0-68.267-30.583-68.267-68.267 0-21.333 9.967-41.097 27.375-54.272 4.267-3.277 6.758-8.26 6.758-13.585v-85.743c0-9.387 7.646-17.067 17.067-17.067h34.133c9.387 0 17.067 7.68 17.067 17.067v85.743c0 5.325 2.492 10.411 6.758 13.585 17.408 13.21 27.375 32.939 27.375 54.272 0 37.683-30.583 68.267-68.267 68.267z" />
<glyph unicode="&#xe63a;" d="M205.858 111.275c-56.457 0-102.4 45.978-102.4 102.4 0 56.457 45.943 102.4 102.4 102.4s102.4-45.943 102.4-102.4c0-56.457-45.943-102.4-102.4-102.4zM205.858 281.941c-37.683 0-68.267-30.583-68.267-68.267 0-37.649 30.583-68.267 68.267-68.267 37.649 0 68.267 30.618 68.267 68.267s-30.618 68.267-68.267 68.267zM845.858 111.275c-56.457 0-102.4 45.978-102.4 102.4 0 56.457 45.943 102.4 102.4 102.4s102.4-45.943 102.4-102.4c0-56.457-45.909-102.4-102.4-102.4zM845.858 281.941c-37.683 0-68.267-30.583-68.267-68.267 0-37.649 30.583-68.267 68.267-68.267 37.649 0 68.267 30.618 68.267 68.267s-30.618 68.267-68.267 68.267zM648.533 170.325h-273.067c-9.421 0-17.067 7.68-17.067 17.067s7.646 17.067 17.067 17.067h273.067c9.387 0 17.067-7.68 17.067-17.067s-7.68-17.067-17.067-17.067zM1006.933 153.259c-9.387 0-17.067 7.68-17.067 17.067v512h-750.933c-9.421 0-17.067 7.646-17.067 17.067s7.646 17.067 17.067 17.067h768c9.387 0 17.067-7.646 17.067-17.067v-529.067c0-9.387-7.68-17.067-17.067-17.067zM17.067 153.259c-9.421 0-17.067 7.68-17.067 17.067v258.389c0 6.929 4.13 13.107 10.513 15.735l91.887 38.366v75.776c0 98.85 51.029 157.867 136.533 157.867 9.421 0 17.067-7.646 17.067-17.067s-7.646-17.067-17.067-17.067c-84.617 0-102.4-67.277-102.4-123.733v-87.142c0-6.895-4.13-13.107-10.513-15.735l-91.887-38.298v-247.057c0-9.421-7.646-17.101-17.067-17.101zM324.267 477.525h-132.642c-9.421 0-17.067 7.646-17.067 17.067 0 92.74 103.97 149.060 149.709 149.060 9.421 0 17.067-7.646 17.067-17.067v-131.994c0-9.421-7.646-17.067-17.067-17.067zM210.33 511.659h96.87v94.754c-32.802-9.865-86.801-43.076-96.87-94.754zM392.533 682.325h-68.267c-9.421 0-17.067 7.646-17.067 17.067v68.267c0 9.421 7.646 17.067 17.067 17.067h68.267c9.421 0 17.067-7.646 17.067-17.067v-68.267c0-9.421-7.646-17.067-17.067-17.067zM341.333 716.459h34.133v34.133h-34.133v-34.133zM802.133 375.125h-102.4c-9.387 0-17.067 7.68-17.067 17.067v51.2h-51.2c-9.387 0-17.067 7.646-17.067 17.067v102.4c0 9.421 7.68 17.067 17.067 17.067h51.2v51.2c0 9.421 7.68 17.067 17.067 17.067h102.4c9.387 0 17.067-7.646 17.067-17.067v-51.2h51.2c9.387 0 17.067-7.646 17.067-17.067v-102.4c0-9.421-7.68-17.067-17.067-17.067h-51.2v-51.2c0-9.387-7.68-17.067-17.067-17.067zM716.8 409.259h68.267v51.2c0 9.421 7.68 17.067 17.067 17.067h51.2v68.267h-51.2c-9.387 0-17.067 7.646-17.067 17.067v51.2h-68.267v-51.2c0-9.421-7.68-17.067-17.067-17.067h-51.2v-68.267h51.2c9.387 0 17.067-7.646 17.067-17.067v-51.2z" />
<glyph unicode="&#xe63b;" d="M883.473-33.417c-124.314 0-337.408 129.604-530.364 322.526-118.886 118.852-215.381 246.34-271.633 358.878-59.051 118.033-66.833 207.667-22.016 252.484 19.217 19.217 46.455 28.945 81.067 28.945 124.314 0 337.442-129.604 530.364-322.526 118.886-118.886 215.415-246.374 271.633-358.912 59.017-117.999 66.833-207.667 22.050-252.45-19.285-19.183-46.524-28.945-81.101-28.945zM140.493 895.283c-25.156 0-44.339-6.383-56.9-18.944-33.109-33.109-22.767-110.797 28.399-213.094 54.716-109.329 148.855-233.643 265.25-350.003 184.047-184.047 392.226-312.491 506.231-312.491 25.19 0 44.339 6.383 56.9 18.944 33.109 33.143 22.767 110.797-28.399 213.094-54.682 109.329-148.855 233.643-265.25 350.003-184.013 183.979-392.158 312.491-506.231 312.491zM140.493-33.417v0c-34.577 0-61.85 9.728-81.067 28.945-44.817 44.817-37.001 134.451 22.016 252.45 56.218 112.538 152.713 239.991 271.633 358.912 192.956 192.922 406.050 322.526 530.364 322.526 34.577 0 61.85-9.728 81.067-28.945 44.817-44.817 37.001-134.485-22.050-252.484-56.218-112.503-152.713-239.991-271.633-358.878-192.853-192.922-405.982-322.526-530.33-322.526zM883.473 895.283c-114.005 0-322.185-128.512-506.231-312.525-116.361-116.395-210.534-240.708-265.25-350.003-51.166-102.332-61.508-179.951-28.399-213.094 12.595-12.595 31.744-18.944 56.9-18.944 114.039 0 322.185 128.512 506.231 312.491 116.361 116.395 210.569 240.674 265.25 350.003 51.166 102.332 61.508 179.985 28.399 213.094-12.595 12.629-31.744 18.978-56.9 18.978zM512 379.017c-38.025 0-68.983 30.993-68.983 68.983 0 38.025 30.959 68.983 68.983 68.983 37.99 0 68.983-30.959 68.983-68.983 0-37.99-30.993-68.983-68.983-68.983zM512 482.85c-19.217 0-34.85-15.633-34.85-34.85s15.633-34.85 34.85-34.85c19.217 0 34.85 15.667 34.85 34.85 0 19.217-15.633 34.85-34.85 34.85z" />
</font>
</defs>
</svg>
